  0
SECTION
  2
HEADER
  9
$ACADVER
  1
AC1015
  9
$ACADMAINTVER
 70
     6
  9
$DWGCODEPAGE
  3
ANSI_1252
  9
$INSBASE
 10
0.0
 20
0.0
 30
0.0
  9
$EXTMIN
 10
0.0
 20
0.0
 30
0.0
  9
$EXTMAX
 10
297.0
 20
210.0
 30
0.0
  9
$LIMMIN
 10
0.0
 20
0.0
  9
$LIMMAX
 10
12.0
 20
9.0
  9
$ORTHOMODE
 70
     0
  9
$REGENMODE
 70
     1
  9
$FILLMODE
 70
     1
  9
$QTEXTMODE
 70
     0
  9
$MIRRTEXT
 70
     1
  9
$LTSCALE
 40
1.0
  9
$ATTMODE
 70
     1
  9
$TEXTSIZE
 40
0.2
  9
$TRACEWID
 40
0.05
  9
$TEXTSTYLE
  7
Standard
  9
$CLAYER
  8
0
  9
$CELTYPE
  6
ByLayer
  9
$CECOLOR
 62
   256
  9
$CELTSCALE
 40
1.0
  9
$DISPSILH
 70
     0
  9
$DIMSCALE
 40
1.0
  9
$DIMASZ
 40
0.18
  9
$DIMEXO
 40
0.0625
  9
$DIMDLI
 40
0.38
  9
$DIMRND
 40
0.0
  9
$DIMDLE
 40
0.0
  9
$DIMEXE
 40
0.18
  9
$DIMTP
 40
0.0
  9
$DIMTM
 40
0.0
  9
$DIMTXT
 40
0.18
  9
$DIMCEN
 40
0.09
  9
$DIMTSZ
 40
0.0
  9
$DIMTOL
 70
     0
  9
$DIMLIM
 70
     0
  9
$DIMTIH
 70
     1
  9
$DIMTOH
 70
     1
  9
$DIMSE1
 70
     0
  9
$DIMSE2
 70
     0
  9
$DIMTAD
 70
     0
  9
$DIMZIN
 70
     0
  9
$DIMBLK
  1

  9
$DIMASO
 70
     1
  9
$DIMSHO
 70
     1
  9
$DIMPOST
  1

  9
$DIMAPOST
  1

  9
$DIMALT
 70
     0
  9
$DIMALTD
 70
     2
  9
$DIMALTF
 40
25.4
  9
$DIMLFAC
 40
1.0
  9
$DIMTOFL
 70
     0
  9
$DIMTVP
 40
0.0
  9
$DIMTIX
 70
     0
  9
$DIMSOXD
 70
     0
  9
$DIMSAH
 70
     0
  9
$DIMBLK1
  1

  9
$DIMBLK2
  1

  9
$DIMSTYLE
  2
Standard
  9
$DIMCLRD
 70
     0
  9
$DIMCLRE
 70
     0
  9
$DIMCLRT
 70
     0
  9
$DIMTFAC
 40
1.0
  9
$DIMGAP
 40
0.09
  9
$DIMJUST
 70
     0
  9
$DIMSD1
 70
     0
  9
$DIMSD2
 70
     0
  9
$DIMTOLJ
 70
     1
  9
$DIMTZIN
 70
     0
  9
$DIMALTZ
 70
     0
  9
$DIMALTTZ
 70
     0
  9
$DIMUPT
 70
     0
  9
$DIMDEC
 70
     4
  9
$DIMTDEC
 70
     4
  9
$DIMALTU
 70
     2
  9
$DIMALTTD
 70
     2
  9
$DIMTXSTY
  7
Standard
  9
$DIMAUNIT
 70
     0
  9
$DIMADEC
 70
     0
  9
$DIMALTRND
 40
0.0
  9
$DIMAZIN
 70
     0
  9
$DIMDSEP
 70
    46
  9
$DIMATFIT
 70
     3
  9
$DIMFRAC
 70
     0
  9
$DIMLDRBLK
  1

  9
$DIMLUNIT
 70
     2
  9
$DIMLWD
 70
    -2
  9
$DIMLWE
 70
    -2
  9
$DIMTMOVE
 70
     0
  9
$LUNITS
 70
     2
  9
$LUPREC
 70
     4
  9
$SKETCHINC
 40
0.1
  9
$FILLETRAD
 40
0.5
  9
$AUNITS
 70
     0
  9
$AUPREC
 70
     0
  9
$MENU
  1
.
  9
$ELEVATION
 40
0.0
  9
$PELEVATION
 40
0.0
  9
$THICKNESS
 40
0.0
  9
$LIMCHECK
 70
     0
  9
$CHAMFERA
 40
0.5
  9
$CHAMFERB
 40
0.5
  9
$CHAMFERC
 40
1.0
  9
$CHAMFERD
 40
0.0
  9
$SKPOLY
 70
     0
  9
$TDCREATE
 40
2456997.346451169
  9
$TDUCREATE
 40
2456997.304784502
  9
$TDUPDATE
 40
2456997.346451528
  9
$TDUUPDATE
 40
2456997.304784861
  9
$TDINDWG
 40
0.0000000116
  9
$TDUSRTIMER
 40
0.0000000116
  9
$USRTIMER
 70
     1
  9
$ANGBASE
 50
0.0
  9
$ANGDIR
 70
     0
  9
$PDMODE
 70
     0
  9
$PDSIZE
 40
0.0
  9
$PLINEWID
 40
0.0
  9
$SPLFRAME
 70
     0
  9
$SPLINETYPE
 70
     6
  9
$SPLINESEGS
 70
     8
  9
$HANDSEED
  5
382
  9
$SURFTAB1
 70
     6
  9
$SURFTAB2
 70
     6
  9
$SURFTYPE
 70
     6
  9
$SURFU
 70
     6
  9
$SURFV
 70
     6
  9
$UCSBASE
  2

  9
$UCSNAME
  2

  9
$UCSORG
 10
0.0
 20
0.0
 30
0.0
  9
$UCSXDIR
 10
1.0
 20
0.0
 30
0.0
  9
$UCSYDIR
 10
0.0
 20
1.0
 30
0.0
  9
$UCSORTHOREF
  2

  9
$UCSORTHOVIEW
 70
     0
  9
$UCSORGTOP
 10
0.0
 20
0.0
 30
0.0
  9
$UCSORGBOTTOM
 10
0.0
 20
0.0
 30
0.0
  9
$UCSORGLEFT
 10
0.0
 20
0.0
 30
0.0
  9
$UCSORGRIGHT
 10
0.0
 20
0.0
 30
0.0
  9
$UCSORGFRONT
 10
0.0
 20
0.0
 30
0.0
  9
$UCSORGBACK
 10
0.0
 20
0.0
 30
0.0
  9
$PUCSBASE
  2

  9
$PUCSNAME
  2

  9
$PUCSORG
 10
0.0
 20
0.0
 30
0.0
  9
$PUCSXDIR
 10
1.0
 20
0.0
 30
0.0
  9
$PUCSYDIR
 10
0.0
 20
1.0
 30
0.0
  9
$PUCSORTHOREF
  2

  9
$PUCSORTHOVIEW
 70
     0
  9
$PUCSORGTOP
 10
0.0
 20
0.0
 30
0.0
  9
$PUCSORGBOTTOM
 10
0.0
 20
0.0
 30
0.0
  9
$PUCSORGLEFT
 10
0.0
 20
0.0
 30
0.0
  9
$PUCSORGRIGHT
 10
0.0
 20
0.0
 30
0.0
  9
$PUCSORGFRONT
 10
0.0
 20
0.0
 30
0.0
  9
$PUCSORGBACK
 10
0.0
 20
0.0
 30
0.0
  9
$USERI1
 70
     0
  9
$USERI2
 70
     0
  9
$USERI3
 70
     0
  9
$USERI4
 70
     0
  9
$USERI5
 70
     0
  9
$USERR1
 40
18.1
  9
$USERR2
 40
0.0
  9
$USERR3
 40
0.0
  9
$USERR4
 40
0.0
  9
$USERR5
 40
0.0
  9
$WORLDVIEW
 70
     1
  9
$SHADEDGE
 70
     3
  9
$SHADEDIF
 70
    70
  9
$TILEMODE
 70
     1
  9
$MAXACTVP
 70
    64
  9
$PINSBASE
 10
0.0
 20
0.0
 30
0.0
  9
$PLIMCHECK
 70
     0
  9
$PEXTMIN
 10
1.00000000000000E+20
 20
1.00000000000000E+20
 30
1.00000000000000E+20
  9
$PEXTMAX
 10
-1.00000000000000E+20
 20
-1.00000000000000E+20
 30
-1.00000000000000E+20
  9
$PLIMMIN
 10
0.0
 20
0.0
  9
$PLIMMAX
 10
12.0
 20
9.0
  9
$UNITMODE
 70
     0
  9
$VISRETAIN
 70
     1
  9
$PLINEGEN
 70
     0
  9
$PSLTSCALE
 70
     1
  9
$TREEDEPTH
 70
  3020
  9
$CMLSTYLE
  2
Standard
  9
$CMLJUST
 70
     0
  9
$CMLSCALE
 40
1.0
  9
$PROXYGRAPHICS
 70
     1
  9
$MEASUREMENT
 70
     1
  9
$CELWEIGHT
370
    -1
  9
$ENDCAPS
280
     0
  9
$JOINSTYLE
280
     0
  9
$LWDISPLAY
290
     0
  9
$INSUNITS
 70
     4
  9
$HYPERLINKBASE
  1

  9
$STYLESHEET
  1

  9
$XEDIT
290
     1
  9
$CEPSNTYPE
380
     0
  9
$PSTYLEMODE
290
     1
  9
$FINGERPRINTGUID
  2
{58BB4BC7-6D04-40F1-872F-1685E8675B9D}
  9
$VERSIONGUID
  2
{FAEB1C32-E019-11D5-929B-00C0DF256EC4}
  9
$EXTNAMES
290
     1
  9
$PSVPSCALE
 40
0.0
  9
$OLESTARTUP
290
     0
  0
ENDSEC
  0
SECTION
  2
CLASSES
  0
CLASS
  1
ACDBDICTIONARYWDFLT
  2
AcDbDictionaryWithDefault
  3
ObjectDBX Classes
 90
        0
280
     0
281
     0
  0
CLASS
  1
VISUALSTYLE
  2
AcDbVisualStyle
  3
ObjectDBX Classes
 90
     4095
280
     0
281
     0
  0
CLASS
  1
MATERIAL
  2
AcDbMaterial
  3
ObjectDBX Classes
 90
     1153
280
     0
281
     0
  0
CLASS
  1
DICTIONARYVAR
  2
AcDbDictionaryVar
  3
ObjectDBX Classes
 90
        0
280
     0
281
     0
  0
CLASS
  1
ACDBPLACEHOLDER
  2
AcDbPlaceHolder
  3
ObjectDBX Classes
 90
        0
280
     0
281
     0
  0
CLASS
  1
LAYOUT
  2
AcDbLayout
  3
ObjectDBX Classes
 90
        0
280
     0
281
     0
  0
ENDSEC
  0
SECTION
  2
TABLES
  0
TABLE
  2
VPORT
  5
8
330
0
100
AcDbSymbolTable
 70
     1
  0
VPORT
  5
29
330
8
100
AcDbSymbolTableRecord
100
AcDbViewportTableRecord
  2
*Active
 70
     0
 10
0.0
 20
0.0
 11
1.0
 21
1.0
 12
148.5
 22
105.0
 13
0.0
 23
0.0
 14
0.5
 24
0.5
 15
0.5
 25
0.5
 16
0.0
 26
0.0
 36
1.0
 17
0.0
 27
0.0
 37
0.0
 40
231.0
 41
1.60267857142857
 42
50.0
 43
0.0
 44
0.0
 50
0.0
 51
0.0
 71
     0
 72
   100
 73
     1
 74
     3
 75
     0
 76
     0
 77
     0
 78
     0
281
     0
 65
     1
110
0.0
120
0.0
130
0.0
111
1.0
121
0.0
131
0.0
112
0.0
122
1.0
132
0.0
 79
     0
146
0.0
  0
ENDTAB
  0
TABLE
  2
LTYPE
  5
5
330
0
100
AcDbSymbolTable
 70
     8
  0
LTYPE
  5
14
330
5
100
AcDbSymbolTableRecord
100
AcDbLinetypeTableRecord
  2
ByBlock
 70
     0
  3

 72
    65
 73
     0
 40
0.0
  0
LTYPE
  5
15
330
5
100
AcDbSymbolTableRecord
100
AcDbLinetypeTableRecord
  2
ByLayer
 70
     0
  3

 72
    65
 73
     0
 40
0.0
  0
LTYPE
  5
16
330
5
100
AcDbSymbolTableRecord
100
AcDbLinetypeTableRecord
  2
Continuous
 70
     0
  3
Solid line
 72
    65
 73
     0
 40
0.0
  0
LTYPE
  5
3F
330
5
100
AcDbSymbolTableRecord
100
AcDbLinetypeTableRecord
  2
DASHED
 70
     0
  3
Dashed
 72
    65
 73
     2
 40
15.0
 49
7.0
 74
     0
 49
-8.0
 74
     0
  0
LTYPE
  5
40
330
5
100
AcDbSymbolTableRecord
100
AcDbLinetypeTableRecord
  2
DOTTED
 70
     0
  3
Dotted
 72
    65
 73
     2
 40
1.0
 49
0.0
 74
     0
 49
-1.0
 74
     0
  0
LTYPE
  5
41
330
5
100
AcDbSymbolTableRecord
100
AcDbLinetypeTableRecord
  2
DOT_CENTER
 70
     0
  3
Dot_Center
 72
    65
 73
     4
 40
14.0
 49
12.0
 74
     0
 49
-1.0
 74
     0
 49
0.0
 74
     0
 49
-1.0
 74
     0
  0
LTYPE
  5
42
330
5
100
AcDbSymbolTableRecord
100
AcDbLinetypeTableRecord
  2
LONG_DASHED
 70
     0
  3
Long_Dashed
 72
    65
 73
     2
 40
15.0
 49
10.0
 74
     0
 49
-5.0
 74
     0
  0
LTYPE
  5
43
330
5
100
AcDbSymbolTableRecord
100
AcDbLinetypeTableRecord
  2
DASH_CENTER
 70
     0
  3
Dash_Center
 72
    65
 73
     4
 40
14.0
 49
11.0
 74
     0
 49
-1.0
 74
     0
 49
1.0
 74
     0
 49
-1.0
 74
     0
  0
LTYPE
  5
44
330
5
100
AcDbSymbolTableRecord
100
AcDbLinetypeTableRecord
  2
PHANTOM
 70
     0
  3
Phantom
 72
    65
 73
     6
 40
13.0
 49
10.0
 74
     0
 49
-1.0
 74
     0
 49
0.0
 74
     0
 49
-1.0
 74
     0
 49
0.0
 74
     0
 49
-1.0
 74
     0
  0
LTYPE
  5
45
330
5
100
AcDbSymbolTableRecord
100
AcDbLinetypeTableRecord
  2
CENTER_DASH_DASH
 70
     0
  3
Center_Dash_Dash
 72
    65
 73
     6
 40
14.0
 49
9.0
 74
     0
 49
-1.0
 74
     0
 49
1.0
 74
     0
 49
-1.0
 74
     0
 49
1.0
 74
     0
 49
-1.0
 74
     0
  0
ENDTAB
  0
TABLE
  2
LAYER
  5
2
330
0
100
AcDbSymbolTable
 70
     2
  0
LAYER
  5
10
330
2
100
AcDbSymbolTableRecord
100
AcDbLayerTableRecord
  2
0
 70
     0
 62
     7
  6
Continuous
370
    -3
390
F
  0
LAYER
  5
46
330
2
100
AcDbSymbolTableRecord
100
AcDbLayerTableRecord
  2
1
 70
     0
 62
     7
  6
Continuous
370
    -3
390
F
  0
ENDTAB
  0
TABLE
  2
STYLE
  5
3
330
0
100
AcDbSymbolTable
 70
     4
  0
STYLE
  5
11
330
3
100
AcDbSymbolTableRecord
100
AcDbTextStyleTableRecord
  2
Standard
 70
     0
 40
0.0
 41
1.0
 50
0.0
 71
     0
 42
0.2
  3
txt
  4

  0
STYLE
  5
7D
330
3
100
AcDbSymbolTableRecord
100
AcDbTextStyleTableRecord
  2
CONVERTER_11
 70
     0
 40
0.0
 41
0.95
 50
0.0
 71
     0
 42
0.2
  3
simplex.shx
  4

  0
STYLE
  5
12A
330
3
100
AcDbSymbolTableRecord
100
AcDbTextStyleTableRecord
  2
CONVERTER_12
 70
     0
 40
0.0
 41
1.2
 50
0.0
 71
     0
 42
0.2
  3
ARIAL.TTF
  4

  0
STYLE
  5
12F
330
3
100
AcDbSymbolTableRecord
100
AcDbTextStyleTableRecord
  2
CONVERTER_13
 70
     0
 40
0.0
 41
1.38
 50
0.0
 71
     0
 42
0.2
  3
ARIAL.TTF
  4

  0
ENDTAB
  0
TABLE
  2
VIEW
  5
6
330
0
100
AcDbSymbolTable
 70
     0
  0
ENDTAB
  0
TABLE
  2
UCS
  5
7
330
0
100
AcDbSymbolTable
 70
     0
  0
ENDTAB
  0
TABLE
  2
APPID
  5
9
330
0
100
AcDbSymbolTable
 70
     1
  0
APPID
  5
12
330
9
100
AcDbSymbolTableRecord
100
AcDbRegAppTableRecord
  2
ACAD
 70
     0
  0
ENDTAB
  0
TABLE
  2
DIMSTYLE
  5
A
330
0
100
AcDbSymbolTable
 70
    16
100
AcDbDimStyleTable
  0
DIMSTYLE
105
27
330
A
100
AcDbSymbolTableRecord
100
AcDbDimStyleTableRecord
  2
Standard
 70
     0
178
     0
340
11
  0
DIMSTYLE
105
8A
102
{ACAD_REACTORS
330
8B
102
}
330
A
100
AcDbSymbolTableRecord
100
AcDbDimStyleTableRecord
  2
ME10_DIM_10
 70
     0
 41
6.0
 42
1.0
 44
2.0
 73
     0
 74
     0
 77
     1
 78
     8
140
6.0
147
4.0
172
     1
173
     1
174
     1
175
     1
176
     2
177
     2
271
     2
178
     4
271
     2
340
7D
  0
DIMSTYLE
105
96
102
{ACAD_REACTORS
330
97
102
}
330
A
100
AcDbSymbolTableRecord
100
AcDbDimStyleTableRecord
  2
ME10_DIM_11
 70
     0
 41
6.0
 42
1.0
 44
2.0
 73
     0
 74
     0
 77
     1
 78
     8
140
6.0
147
4.0
172
     1
173
     1
174
     1
175
     1
176
     2
177
     2
271
     2
178
     4
271
     2
340
7D
  0
DIMSTYLE
105
A3
102
{ACAD_REACTORS
330
A4
102
}
330
A
100
AcDbSymbolTableRecord
100
AcDbDimStyleTableRecord
  2
ME10_DIM_12
 70
     0
 41
6.0
 42
1.0
 44
2.0
 73
     0
 74
     0
 77
     1
 78
     8
140
6.0
147
4.0
172
     1
173
     1
174
     1
175
     1
176
     2
177
     2
271
     2
178
     4
271
     2
340
7D
  0
DIMSTYLE
105
B0
102
{ACAD_REACTORS
330
B1
102
}
330
A
100
AcDbSymbolTableRecord
100
AcDbDimStyleTableRecord
  2
ME10_DIM_13
 70
     0
  3
M<>
 41
6.0
 42
1.0
 44
2.0
 73
     0
 74
     0
 77
     1
 78
     8
140
6.0
147
4.0
172
     1
173
     1
174
     1
175
     1
176
     2
177
     2
271
     2
178
     4
271
     2
340
7D
  0
DIMSTYLE
105
BB
102
{ACAD_REACTORS
330
BC
102
}
330
A
100
AcDbSymbolTableRecord
100
AcDbDimStyleTableRecord
  2
ME10_DIM_14
 70
     0
 41
6.0
 42
1.0
 44
2.0
 73
     0
 74
     0
 77
     1
 78
     8
140
6.0
147
4.0
172
     1
173
     1
174
     1
175
     1
176
     2
177
     2
271
     2
178
     4
271
     2
340
7D
  0
DIMSTYLE
105
C8
102
{ACAD_REACTORS
330
C9
102
}
330
A
100
AcDbSymbolTableRecord
100
AcDbDimStyleTableRecord
  2
ME10_DIM_15
 70
     0
 41
6.0
 42
1.0
 44
2.0
 73
     0
 74
     0
 77
     1
 78
     8
140
6.0
147
4.0
172
     1
173
     1
174
     1
175
     1
176
     2
177
     2
271
     2
178
     4
271
     2
340
7D
  0
DIMSTYLE
105
D4
102
{ACAD_REACTORS
330
D5
102
}
330
A
100
AcDbSymbolTableRecord
100
AcDbDimStyleTableRecord
  2
ME10_DIM_16
 70
     0
 41
6.0
 42
1.0
 44
2.0
 73
     0
 74
     0
 77
     1
 78
     8
140
6.0
147
4.0
172
     1
173
     1
174
     1
175
     1
176
     2
177
     2
271
     2
178
     4
271
     2
340
7D
  0
DIMSTYLE
105
302
102
{ACAD_REACTORS
330
303
102
}
330
A
100
AcDbSymbolTableRecord
100
AcDbDimStyleTableRecord
  2
ME10_DIM_17
 70
     0
 41
3.0
 42
0.5
 44
1.0
 73
     0
 74
     0
 77
     1
 78
     8
140
3.0
147
2.0
172
     1
173
     1
174
     1
175
     1
176
     2
177
     2
271
     2
178
     4
271
     2
340
7D
  0
DIMSTYLE
105
30F
102
{ACAD_REACTORS
330
310
102
}
330
A
100
AcDbSymbolTableRecord
100
AcDbDimStyleTableRecord
  2
ME10_DIM_18
 70
     0
  3
M<>
 41
3.0
 42
0.5
 44
1.0
 73
     0
 74
     0
 77
     1
 78
     8
140
3.0
147
2.0
172
     1
173
     1
174
     1
175
     1
176
     2
177
     2
271
     2
178
     4
271
     2
340
7D
  0
DIMSTYLE
105
31C
102
{ACAD_REACTORS
330
31D
102
}
330
A
100
AcDbSymbolTableRecord
100
AcDbDimStyleTableRecord
  2
ME10_DIM_19
 70
     0
  3
M<>
 41
3.0
 42
0.5
 44
1.0
 73
     0
 74
     0
 77
     1
 78
     8
140
3.0
147
2.0
172
     1
173
     1
174
     1
175
     1
176
     2
177
     2
271
     2
178
     4
271
     2
340
7D
  0
DIMSTYLE
105
329
102
{ACAD_REACTORS
330
32A
102
}
330
A
100
AcDbSymbolTableRecord
100
AcDbDimStyleTableRecord
  2
ME10_DIM_20
 70
     0
 41
3.0
 42
0.5
 44
1.0
 73
     0
 74
     0
 77
     1
 78
     8
140
3.0
147
2.0
172
     1
173
     1
174
     1
175
     1
176
     2
177
     2
271
     2
178
     4
271
     2
340
7D
  0
DIMSTYLE
105
334
102
{ACAD_REACTORS
330
335
102
}
330
A
100
AcDbSymbolTableRecord
100
AcDbDimStyleTableRecord
  2
ME10_DIM_21
 70
     0
 41
3.0
 42
0.5
 44
1.0
 73
     0
 74
     0
 77
     1
 78
     8
140
3.0
147
2.0
172
     1
173
     1
174
     1
175
     1
176
     2
177
     2
271
     2
178
     4
271
     2
340
7D
  0
DIMSTYLE
105
33F
102
{ACAD_REACTORS
330
340
102
}
330
A
100
AcDbSymbolTableRecord
100
AcDbDimStyleTableRecord
  2
ME10_DIM_22
 70
     0
 41
3.0
 42
0.5
 44
1.0
 73
     0
 74
     0
 77
     1
 78
     8
140
3.0
147
2.0
172
     1
173
     1
174
     1
175
     1
176
     2
177
     2
271
     2
178
     4
271
     2
340
7D
  0
DIMSTYLE
105
34A
102
{ACAD_REACTORS
330
34B
102
}
330
A
100
AcDbSymbolTableRecord
100
AcDbDimStyleTableRecord
  2
ME10_DIM_23
 70
     0
 41
3.0
 42
0.5
 44
1.0
 73
     0
 74
     0
 77
     1
 78
     8
140
3.0
147
2.0
172
     1
173
     1
174
     1
175
     1
176
     2
177
     2
271
     2
178
     4
271
     2
340
7D
  0
DIMSTYLE
105
355
102
{ACAD_REACTORS
330
356
102
}
330
A
100
AcDbSymbolTableRecord
100
AcDbDimStyleTableRecord
  2
ME10_DIM_24
 70
     0
 41
3.0
 42
0.5
 44
1.0
 73
     0
 74
     0
 77
     1
 78
     8
140
3.0
147
2.0
172
     1
173
     1
174
     1
175
     1
176
     2
177
     2
271
     2
178
     4
271
     2
340
7D
  0
ENDTAB
  0
TABLE
  2
BLOCK_RECORD
  5
1
330
0
100
AcDbSymbolTable
 70
    20
  0
BLOCK_RECORD
  5
1F
330
1
100
AcDbSymbolTableRecord
100
AcDbBlockTableRecord
  2
*Model_Space
340
22
  0
BLOCK_RECORD
  5
1B
330
1
100
AcDbSymbolTableRecord
100
AcDbBlockTableRecord
  2
*Paper_Space
340
1E
  0
BLOCK_RECORD
  5
23
330
1
100
AcDbSymbolTableRecord
100
AcDbBlockTableRecord
  2
*Paper_Space0
340
26
  0
BLOCK_RECORD
  5
47
330
1
100
AcDbSymbolTableRecord
100
AcDbBlockTableRecord
  2
Panel_cut_out_10p
340
0
102
{BLKREFS
331
51
102
}
  0
BLOCK_RECORD
  5
4A
330
1
100
AcDbSymbolTableRecord
100
AcDbBlockTableRecord
  2
_formato_A4
340
0
102
{BLKREFS
331
4E
102
}
  0
BLOCK_RECORD
  5
4D
330
1
100
AcDbSymbolTableRecord
100
AcDbBlockTableRecord
  2
A4_oriz
340
0
102
{BLKREFS
331
52
102
}
  0
BLOCK_RECORD
  5
80
330
1
100
AcDbSymbolTableRecord
100
AcDbBlockTableRecord
  2
*D4
340
0
  0
BLOCK_RECORD
  5
8C
330
1
100
AcDbSymbolTableRecord
100
AcDbBlockTableRecord
  2
*D5
340
0
  0
BLOCK_RECORD
  5
98
330
1
100
AcDbSymbolTableRecord
100
AcDbBlockTableRecord
  2
*D6
340
0
  0
BLOCK_RECORD
  5
A5
330
1
100
AcDbSymbolTableRecord
100
AcDbBlockTableRecord
  2
*D7
340
0
  0
BLOCK_RECORD
  5
B2
330
1
100
AcDbSymbolTableRecord
100
AcDbBlockTableRecord
  2
*D8
340
0
  0
BLOCK_RECORD
  5
BD
330
1
100
AcDbSymbolTableRecord
100
AcDbBlockTableRecord
  2
*D9
340
0
  0
BLOCK_RECORD
  5
CA
330
1
100
AcDbSymbolTableRecord
100
AcDbBlockTableRecord
  2
*D10
340
0
  0
BLOCK_RECORD
  5
D6
330
1
100
AcDbSymbolTableRecord
100
AcDbBlockTableRecord
  2
*D11
340
0
102
{BLKREFS
331
DD
102
}
  0
BLOCK_RECORD
  5
2F8
330
1
100
AcDbSymbolTableRecord
100
AcDbBlockTableRecord
  2
*D12
340
0
  0
BLOCK_RECORD
  5
304
330
1
100
AcDbSymbolTableRecord
100
AcDbBlockTableRecord
  2
*D13
340
0
  0
BLOCK_RECORD
  5
311
330
1
100
AcDbSymbolTableRecord
100
AcDbBlockTableRecord
  2
*D14
340
0
  0
BLOCK_RECORD
  5
31E
330
1
100
AcDbSymbolTableRecord
100
AcDbBlockTableRecord
  2
*D15
340
0
  0
BLOCK_RECORD
  5
32B
330
1
100
AcDbSymbolTableRecord
100
AcDbBlockTableRecord
  2
*D16
340
0
  0
BLOCK_RECORD
  5
336
330
1
100
AcDbSymbolTableRecord
100
AcDbBlockTableRecord
  2
*D17
340
0
  0
BLOCK_RECORD
  5
341
330
1
100
AcDbSymbolTableRecord
100
AcDbBlockTableRecord
  2
*D18
340
0
  0
BLOCK_RECORD
  5
34C
330
1
100
AcDbSymbolTableRecord
100
AcDbBlockTableRecord
  2
*D19
340
0
  0
ENDTAB
  0
ENDSEC
  0
SECTION
  2
BLOCKS
  0
BLOCK
  5
20
330
1F
100
AcDbEntity
  8
0
100
AcDbBlockBegin
  2
*Model_Space
 70
     0
 10
0.0
 20
0.0
 30
0.0
  3
*Model_Space
  1

  0
ENDBLK
  5
21
330
1F
100
AcDbEntity
  8
0
100
AcDbBlockEnd
  0
BLOCK
  5
1C
330
1B
100
AcDbEntity
 67
     1
  8
0
100
AcDbBlockBegin
  2
*Paper_Space
 70
     0
 10
0.0
 20
0.0
 30
0.0
  3
*Paper_Space
  1

  0
ENDBLK
  5
1D
330
1B
100
AcDbEntity
 67
     1
  8
0
100
AcDbBlockEnd
  0
BLOCK
  5
24
330
23
100
AcDbEntity
  8
0
100
AcDbBlockBegin
  2
*Paper_Space0
 70
     0
 10
0.0
 20
0.0
 30
0.0
  3
*Paper_Space0
  1

  0
ENDBLK
  5
25
330
23
100
AcDbEntity
  8
0
100
AcDbBlockEnd
  0
BLOCK
  5
48
330
47
100
AcDbEntity
  8
0
100
AcDbBlockBegin
  2
Panel_cut_out_10p
 70
     0
 10
33999.70563892059
 20
47906.77062037792
 30
0.0
  3
Panel_cut_out_10p
  1

  0
LINE
  5
53
330
47
100
AcDbEntity
  8
1
  6
Continuous
 62
     7
100
AcDbLine
 10
33977.21702935991
 20
47922.7956531815
 30
0.0
 11
34023.21702935991
 21
47922.7956531815
 31
0.0
  0
LINE
  5
54
330
47
100
AcDbEntity
  8
1
  6
DOT_CENTER
 62
     2
100
AcDbLine
 10
34099.5834000029
 20
47916.85745210051
 30
0.0
 11
34099.5834000029
 21
47922.85745210051
 31
0.0
  0
LINE
  5
55
330
47
100
AcDbEntity
  8
1
  6
DOT_CENTER
 62
     2
100
AcDbLine
 10
34096.5834000029
 20
47919.85745210051
 30
0.0
 11
34102.5834000029
 21
47919.85745210051
 31
0.0
  0
LINE
  5
56
330
47
100
AcDbEntity
  8
1
  6
DOT_CENTER
 62
     2
100
AcDbLine
 10
34061.5834000029
 20
47916.85745210051
 30
0.0
 11
34061.5834000029
 21
47922.85745210051
 31
0.0
  0
LINE
  5
57
330
47
100
AcDbEntity
  8
1
  6
DOT_CENTER
 62
     2
100
AcDbLine
 10
34096.5834000029
 20
48001.85745210051
 30
0.0
 11
34102.5834000029
 21
48001.85745210051
 31
0.0
  0
LINE
  5
58
330
47
100
AcDbEntity
  8
1
  6
Continuous
 62
     7
100
AcDbLine
 10
34073.0834000029
 20
47927.10745210051
 30
0.0
 11
34061.8334000029
 21
47927.10745210051
 31
0.0
  0
LINE
  5
59
330
47
100
AcDbEntity
  8
1
  6
Continuous
 62
     7
100
AcDbLine
 10
34073.0834000029
 20
47914.35745210051
 30
0.0
 11
34073.0834000029
 21
47927.10745210051
 31
0.0
  0
LINE
  5
5A
330
47
100
AcDbEntity
  8
1
  6
Continuous
 62
     7
100
AcDbLine
 10
34088.0834000029
 20
47927.10745210051
 30
0.0
 11
34088.0834000029
 21
47914.35745210051
 31
0.0
  0
LINE
  5
5B
330
47
100
AcDbEntity
  8
1
  6
Continuous
 62
     7
100
AcDbLine
 10
34061.8334000029
 20
47994.60745210051
 30
0.0
 11
34073.0834000029
 21
47994.60745210051
 31
0.0
  0
LINE
  5
5C
330
47
100
AcDbEntity
  8
1
  6
DOT_CENTER
 62
     2
100
AcDbLine
 10
34080.5834000029
 20
47973.71477944851
 30
0.0
 11
34080.5834000029
 21
47907.35745210051
 31
0.0
  0
LINE
  5
5D
330
47
100
AcDbEntity
  8
1
  6
DOT_CENTER
 62
     2
100
AcDbLine
 10
34080.5834000029
 20
47987.52613935761
 30
0.0
 11
34080.5834000029
 21
48014.35745210051
 31
0.0
  0
LINE
  5
5E
330
47
100
AcDbEntity
  8
1
  6
DOT_CENTER
 62
     2
100
AcDbLine
 10
34054.8334000029
 20
47960.85745210051
 30
0.0
 11
34106.3334000029
 21
47960.85745210051
 31
0.0
  0
LINE
  5
5F
330
47
100
AcDbEntity
  8
1
  6
Continuous
 62
     7
100
AcDbLine
 10
34073.0834000029
 20
47994.60745210051
 30
0.0
 11
34073.0834000029
 21
48007.35745210051
 31
0.0
  0
LINE
  5
60
330
47
100
AcDbEntity
  8
1
  6
Continuous
 62
     7
100
AcDbLine
 10
34075.0834000029
 20
48009.35745210051
 30
0.0
 11
34086.0834000029
 21
48009.35745210051
 31
0.0
  0
LINE
  5
61
330
47
100
AcDbEntity
  8
1
  6
Continuous
 62
     7
100
AcDbLine
 10
34088.0834000029
 20
48007.35745210051
 30
0.0
 11
34088.0834000029
 21
47994.60745210051
 31
0.0
  0
LINE
  5
62
330
47
100
AcDbEntity
  8
1
  6
Continuous
 62
     7
100
AcDbLine
 10
34088.0834000029
 20
47994.60745210051
 30
0.0
 11
34099.3334000029
 21
47994.60745210051
 31
0.0
  0
LINE
  5
63
330
47
100
AcDbEntity
  8
1
  6
Continuous
 62
     7
100
AcDbLine
 10
34101.3334000029
 20
47992.60745210051
 30
0.0
 11
34101.3334000029
 21
47929.10745210051
 31
0.0
  0
LINE
  5
64
330
47
100
AcDbEntity
  8
1
  6
Continuous
 62
     7
100
AcDbLine
 10
34099.3334000029
 20
47927.10745210051
 30
0.0
 11
34088.0834000029
 21
47927.10745210051
 31
0.0
  0
LINE
  5
65
330
47
100
AcDbEntity
  8
1
  6
Continuous
 62
     7
100
AcDbLine
 10
34086.0834000029
 20
47912.35745210051
 30
0.0
 11
34075.0834000029
 21
47912.35745210051
 31
0.0
  0
LINE
  5
66
330
47
100
AcDbEntity
  8
1
  6
Continuous
 62
     7
100
AcDbLine
 10
34059.8334000029
 20
47929.10745210051
 30
0.0
 11
34059.8334000029
 21
47992.60745210051
 31
0.0
  0
LINE
  5
67
330
47
100
AcDbEntity
  8
1
  6
DOT_CENTER
 62
     2
100
AcDbLine
 10
34058.5834000029
 20
48001.85745210051
 30
0.0
 11
34064.5834000029
 21
48001.85745210051
 31
0.0
  0
LINE
  5
68
330
47
100
AcDbEntity
  8
1
  6
DOT_CENTER
 62
     2
100
AcDbLine
 10
34061.5834000029
 20
47998.85745210051
 30
0.0
 11
34061.5834000029
 21
48004.85745210051
 31
0.0
  0
LINE
  5
69
330
47
100
AcDbEntity
  8
1
  6
DOT_CENTER
 62
     2
100
AcDbLine
 10
34099.5834000029
 20
47998.85745210051
 30
0.0
 11
34099.5834000029
 21
48004.85745210051
 31
0.0
  0
LINE
  5
6A
330
47
100
AcDbEntity
  8
1
  6
DOT_CENTER
 62
     2
100
AcDbLine
 10
34058.5834000029
 20
47919.85745210051
 30
0.0
 11
34064.5834000029
 21
47919.85745210051
 31
0.0
  0
ARC
  5
6B
330
47
100
AcDbEntity
  8
1
  6
Continuous
 62
     2
100
AcDbCircle
 10
34061.5834000029
 20
48001.85745210051
 30
0.0
 40
2.5
100
AcDbArc
 50
270.0
 51
90.0
  0
ARC
  5
6C
330
47
100
AcDbEntity
  8
1
  6
Continuous
 62
     2
100
AcDbCircle
 10
34099.5834000029
 20
47919.85745210051
 30
0.0
 40
2.5
100
AcDbArc
 50
270.0
 51
180.0
  0
ARC
  5
6D
330
47
100
AcDbEntity
  8
1
  6
Continuous
 62
     2
100
AcDbCircle
 10
34061.5834000029
 20
47919.85745210051
 30
0.0
 40
2.5
100
AcDbArc
 50
270.0
 51
180.0
  0
ARC
  5
6E
330
47
100
AcDbEntity
  8
1
  6
Continuous
 62
     2
100
AcDbCircle
 10
34099.5834000029
 20
48001.85745210051
 30
0.0
 40
2.5
100
AcDbArc
 50
90.0
 51
180.0
  0
ARC
  5
6F
330
47
100
AcDbEntity
  8
1
  6
Continuous
 62
     2
100
AcDbCircle
 10
34061.5834000029
 20
48001.85745210051
 30
0.0
 40
2.5
100
AcDbArc
 50
90.0
 51
180.0
  0
ARC
  5
70
330
47
100
AcDbEntity
  8
1
  6
Continuous
 62
     2
100
AcDbCircle
 10
34099.5834000029
 20
48001.85745210051
 30
0.0
 40
2.5
100
AcDbArc
 50
270.0
 51
90.0
  0
CIRCLE
  5
71
330
47
100
AcDbEntity
  8
1
  6
Continuous
 62
     7
100
AcDbCircle
 10
34099.5834000029
 20
47919.85745210051
 30
0.0
 40
2.125
  0
CIRCLE
  5
72
330
47
100
AcDbEntity
  8
1
  6
Continuous
 62
     7
100
AcDbCircle
 10
34061.5834000029
 20
47919.85745210051
 30
0.0
 40
2.125
  0
CIRCLE
  5
73
330
47
100
AcDbEntity
  8
1
  6
Continuous
 62
     7
100
AcDbCircle
 10
34099.5834000029
 20
48001.85745210051
 30
0.0
 40
2.125
  0
CIRCLE
  5
74
330
47
100
AcDbEntity
  8
1
  6
Continuous
 62
     7
100
AcDbCircle
 10
34061.5834000029
 20
48001.85745210051
 30
0.0
 40
2.125
  0
ARC
  5
75
330
47
100
AcDbEntity
  8
1
  6
Continuous
 62
     7
100
AcDbCircle
 10
34099.3334000029
 20
47929.10745210051
 30
0.0
 40
2.0
100
AcDbArc
 50
270.0
 51
0.0
  0
ARC
  5
76
330
47
100
AcDbEntity
  8
1
  6
Continuous
 62
     7
100
AcDbCircle
 10
34086.0834000029
 20
47914.35745210051
 30
0.0
 40
2.0
100
AcDbArc
 50
270.0
 51
0.0
  0
ARC
  5
77
330
47
100
AcDbEntity
  8
1
  6
Continuous
 62
     7
100
AcDbCircle
 10
34075.0834000029
 20
47914.35745210051
 30
0.0
 40
2.0
100
AcDbArc
 50
180.0
 51
270.0
  0
ARC
  5
78
330
47
100
AcDbEntity
  8
1
  6
Continuous
 62
     7
100
AcDbCircle
 10
34061.8334000029
 20
47929.10745210051
 30
0.0
 40
2.0
100
AcDbArc
 50
180.0
 51
270.0
  0
ARC
  5
79
330
47
100
AcDbEntity
  8
1
  6
Continuous
 62
     7
100
AcDbCircle
 10
34086.0834000029
 20
48007.35745210051
 30
0.0
 40
2.0
100
AcDbArc
 50
0.0
 51
90.0
  0
ARC
  5
7A
330
47
100
AcDbEntity
  8
1
  6
Continuous
 62
     7
100
AcDbCircle
 10
34075.0834000029
 20
48007.35745210051
 30
0.0
 40
2.0
100
AcDbArc
 50
90.0
 51
180.0
  0
ARC
  5
7B
330
47
100
AcDbEntity
  8
1
  6
Continuous
 62
     7
100
AcDbCircle
 10
34061.8334000029
 20
47992.60745210051
 30
0.0
 40
2.0
100
AcDbArc
 50
90.0
 51
180.0
  0
ARC
  5
7C
330
47
100
AcDbEntity
  8
1
  6
Continuous
 62
     7
100
AcDbCircle
 10
34099.3334000029
 20
47992.60745210051
 30
0.0
 40
2.0
100
AcDbArc
 50
0.0
 51
90.0
  0
MTEXT
  5
7E
330
47
100
AcDbEntity
  8
1
 62
     4
100
AcDbMText
 10
34000.21702935991
 20
47925.2956531815
 30
0.0
 40
7.0
 41
0.0
 71
     8
 72
     1
  1
Scala 1:2
  7
CONVERTER_11
 73
     1
 44
1.32052821128451
  0
MTEXT
  5
7F
330
47
100
AcDbEntity
  8
1
 62
     4
100
AcDbMText
 10
34062.83340000291
 20
47930.10745210049
 30
0.0
 40
4.0
 41
0.0
 71
     7
 72
     1
  1
Panel\Pcut\Pout
  7
CONVERTER_11
 73
     1
 44
1.32052821128451
  0
DIMENSION
  5
8B
330
47
100
AcDbEntity
  8
1
100
AcDbDimension
  2
*D4
 10
34127.26925948829
 20
47994.60745210051
 30
0.0
 11
34119.96925948829
 21
47960.85745210051
 31
0.0
 70
    32
  1
<>
 71
     5
 42
-1.0
 53
90.0
  3
ME10_DIM_10
100
AcDbAlignedDimension
 13
34099.3334000029
 23
47927.10745210051
 33
0.0
 14
34099.3334000029
 24
47994.60745210051
 34
0.0
 50
90.0
100
AcDbRotatedDimension
  0
DIMENSION
  5
97
330
47
100
AcDbEntity
  8
1
100
AcDbDimension
  2
*D5
 10
34144.77249102208
 20
48009.35745210051
 30
0.0
 11
34137.77249102208
 21
47960.85745210051
 31
0.0
 70
    32
  1
<>
 71
     5
 42
-1.0
 53
90.0
  3
ME10_DIM_11
100
AcDbAlignedDimension
 13
34086.0834000029
 23
47912.35745210051
 33
0.0
 14
34086.0834000029
 24
48009.35745210051
 34
0.0
 50
90.0
100
AcDbRotatedDimension
  0
DIMENSION
  5
A4
330
47
100
AcDbEntity
  8
1
100
AcDbDimension
  2
*D6
 10
34061.58340000291
 20
48048.7950543483
 30
0.0
 11
34080.58340000291
 21
48055.7950543483
 31
0.0
 70
    32
  1
<>
 71
     5
 42
-1.0
 53
0.00013888888889
  3
ME10_DIM_12
100
AcDbAlignedDimension
 13
34099.5834000029
 23
48004.85745210051
 33
0.0
 14
34061.5834000029
 24
48004.85745210051
 34
0.0
100
AcDbRotatedDimension
  0
DIMENSION
  5
B1
330
47
100
AcDbEntity
  8
1
100
AcDbDimension
  2
*D7
 10
34117.0013282728
 20
47999.3574521005
 30
0.0
 11
34110.0013282728
 21
48018.75745210049
 31
0.0
 70
    32
  1
<>
 71
     5
 42
-1.0
 53
90.0
  3
ME10_DIM_13
100
AcDbAlignedDimension
 13
34099.5834000029
 23
48004.35745210051
 33
0.0
 14
34099.5834000029
 24
47999.35745210051
 34
0.0
 50
90.0
100
AcDbRotatedDimension
  0
DIMENSION
  5
BC
330
47
100
AcDbEntity
  8
1
100
AcDbDimension
  2
*D8
 10
34059.83340000291
 20
47975.1982064242
 30
0.0
 11
34080.58340000291
 21
47982.49820642421
 31
0.0
 70
    32
  1
<>
 71
     5
 42
-1.0
 53
0.00013888888889
  3
ME10_DIM_14
100
AcDbAlignedDimension
 13
34101.3334000029
 23
47992.60745210051
 33
0.0
 14
34059.8334000029
 24
47992.60745210051
 34
0.0
100
AcDbRotatedDimension
  0
DIMENSION
  5
C9
330
47
100
AcDbEntity
  8
1
100
AcDbDimension
  2
*D9
 10
34073.0834000029
 20
48031.0808391014
 30
0.0
 11
34080.5834000029
 21
48038.0808391014
 31
0.0
 70
    32
  1
<>
 71
     5
 42
-1.0
 53
0.00013888888889
  3
ME10_DIM_15
100
AcDbAlignedDimension
 13
34088.0834000029
 23
48007.35745210051
 33
0.0
 14
34073.0834000029
 24
48007.35745210051
 34
0.0
100
AcDbRotatedDimension
  0
DIMENSION
  5
D5
330
47
100
AcDbEntity
  8
1
100
AcDbDimension
  2
*D10
 10
34041.63538049299
 20
48001.85745210051
 30
0.0
 11
34034.63538049299
 21
47960.85745210051
 31
0.0
 70
    32
  1
<>
 71
     5
 42
-1.0
 53
90.0
  3
ME10_DIM_16
100
AcDbAlignedDimension
 13
34058.5834000029
 23
47919.85745210051
 33
0.0
 14
34058.5834000029
 24
48001.85745210051
 34
0.0
 50
90.0
100
AcDbRotatedDimension
  0
INSERT
  5
DD
330
47
100
AcDbEntity
  8
1
100
AcDbBlockReference
  2
*D11
 10
0.0
 20
0.0
 30
0.0
  0
ENDBLK
  5
49
330
47
100
AcDbEntity
  8
0
100
AcDbBlockEnd
  0
BLOCK
  5
4B
330
4A
100
AcDbEntity
  8
0
100
AcDbBlockBegin
  2
_formato_A4
 70
     0
 10
297.0
 20
0.0
 30
0.0
  3
_formato_A4
  1

  0
LINE
  5
DE
330
4A
100
AcDbEntity
  8
1
  6
Continuous
 62
     7
100
AcDbLine
 10
108.0
 20
5.0
 30
0.0
 11
108.0
 21
40.0
 31
0.0
  0
LINE
  5
DF
330
4A
100
AcDbEntity
  8
1
  6
Continuous
 62
     7
100
AcDbLine
 10
108.0
 20
20.0
 30
0.0
 11
292.0
 21
20.0
 31
0.0
  0
LINE
  5
E0
330
4A
100
AcDbEntity
  8
1
  6
Continuous
 62
     7
100
AcDbLine
 10
5.0
 20
189.0
 30
0.0
 11
5.0
 21
5.0
 31
0.0
  0
LINE
  5
E1
330
4A
100
AcDbEntity
  8
1
  6
Continuous
 62
     7
100
AcDbLine
 10
133.0
 20
35.0
 30
0.0
 11
133.0
 21
40.0
 31
0.0
  0
LINE
  5
E2
330
4A
100
AcDbEntity
  8
1
  6
Continuous
 62
     7
100
AcDbLine
 10
115.0
 20
35.0
 30
0.0
 11
115.0
 21
40.0
 31
0.0
  0
LINE
  5
E3
330
4A
100
AcDbEntity
  8
1
  6
Continuous
 62
     7
100
AcDbLine
 10
108.0
 20
40.0
 30
0.0
 11
292.0
 21
40.0
 31
0.0
  0
LINE
  5
E4
330
4A
100
AcDbEntity
  8
1
  6
Continuous
 62
     7
100
AcDbLine
 10
133.0
 20
30.0
 30
0.0
 11
133.0
 21
35.0
 31
0.0
  0
LINE
  5
E5
330
4A
100
AcDbEntity
  8
1
  6
Continuous
 62
     7
100
AcDbLine
 10
115.0
 20
30.0
 30
0.0
 11
115.0
 21
35.0
 31
0.0
  0
LINE
  5
E6
330
4A
100
AcDbEntity
  8
1
  6
Continuous
 62
     7
100
AcDbLine
 10
108.0
 20
35.0
 30
0.0
 11
292.0
 21
35.0
 31
0.0
  0
LINE
  5
E7
330
4A
100
AcDbEntity
  8
1
  6
Continuous
 62
     7
100
AcDbLine
 10
133.0
 20
25.0
 30
0.0
 11
133.0
 21
30.0
 31
0.0
  0
LINE
  5
E8
330
4A
100
AcDbEntity
  8
1
  6
Continuous
 62
     7
100
AcDbLine
 10
115.0
 20
25.0
 30
0.0
 11
115.0
 21
30.0
 31
0.0
  0
LINE
  5
E9
330
4A
100
AcDbEntity
  8
1
  6
Continuous
 62
     7
100
AcDbLine
 10
108.0
 20
30.0
 30
0.0
 11
292.0
 21
30.0
 31
0.0
  0
LINE
  5
EA
330
4A
100
AcDbEntity
  8
1
  6
Continuous
 62
     7
100
AcDbLine
 10
133.0
 20
20.0
 30
0.0
 11
133.0
 21
25.0
 31
0.0
  0
LINE
  5
EB
330
4A
100
AcDbEntity
  8
1
  6
Continuous
 62
     7
100
AcDbLine
 10
115.0
 20
20.0
 30
0.0
 11
115.0
 21
25.0
 31
0.0
  0
LINE
  5
EC
330
4A
100
AcDbEntity
  8
1
  6
Continuous
 62
     7
100
AcDbLine
 10
108.0
 20
25.0
 30
0.0
 11
292.0
 21
25.0
 31
0.0
  0
LINE
  5
ED
102
{ACAD_REACTORS
330
135
102
}
330
4A
100
AcDbEntity
  8
1
  6
Continuous
 62
     7
100
AcDbLine
 10
282.8428748399092
 20
10.55800208037545
 30
0.0
 11
281.5095415065662
 21
9.78877131114859
 31
0.0
  0
LINE
  5
EE
102
{ACAD_REACTORS
330
135
102
}
330
4A
100
AcDbEntity
  8
1
  6
Continuous
 62
     7
100
AcDbLine
 10
281.6763006887413
 20
10.65463653265033
 30
0.0
 11
282.5097265375807
 21
11.13545913774578
 31
0.0
  0
LINE
  5
EF
102
{ACAD_REACTORS
330
135
102
}
330
4A
100
AcDbEntity
  8
1
  6
Continuous
 62
     7
100
AcDbLine
 10
281.6763006887413
 20
12.16666666667152
 30
0.0
 11
281.6763006887413
 21
10.65463653265033
 31
0.0
  0
LINE
  5
F0
102
{ACAD_REACTORS
330
135
102
}
330
4A
100
AcDbEntity
  8
1
  6
Continuous
 62
     7
100
AcDbLine
 10
282.6763006887413
 20
12.16666666667152
 30
0.0
 11
281.6763006887413
 21
12.16666666667152
 31
0.0
  0
LINE
  5
F1
102
{ACAD_REACTORS
330
135
102
}
330
4A
100
AcDbEntity
  8
1
  6
Continuous
 62
     7
100
AcDbLine
 10
281.6763006887413
 20
12.83333333333576
 30
0.0
 11
282.6763006887413
 21
12.83333333333576
 31
0.0
  0
LINE
  5
F2
102
{ACAD_REACTORS
330
135
102
}
330
4A
100
AcDbEntity
  8
1
  6
Continuous
 62
     7
100
AcDbLine
 10
281.6763006887413
 20
14.34536346734967
 30
0.0
 11
281.6763006887413
 21
12.83333333333576
 31
0.0
  0
LINE
  5
F3
102
{ACAD_REACTORS
330
135
102
}
330
4A
100
AcDbEntity
  8
1
  6
Continuous
 62
     7
100
AcDbLine
 10
282.5097265375807
 20
13.86454086226149
 30
0.0
 11
281.6763006887413
 21
14.34536346734967
 31
0.0
  0
LINE
  5
F4
102
{ACAD_REACTORS
330
135
102
}
330
4A
100
AcDbEntity
  8
1
  6
Continuous
 62
     7
100
AcDbLine
 10
281.5095415065662
 20
15.21122868885141
 30
0.0
 11
282.8428748399092
 21
14.44199791961728
 31
0.0
  0
LINE
  5
F5
102
{ACAD_REACTORS
330
136
102
}
330
4A
100
AcDbEntity
  8
1
  6
Continuous
 62
     7
100
AcDbLine
 10
274.3429673554056
 20
10.84673060906061
 30
0.0
 11
274.3429673554056
 21
14.15326939093939
 31
0.0
  0
LINE
  5
F6
102
{ACAD_REACTORS
330
136
102
}
330
4A
100
AcDbEntity
  8
1
  6
Continuous
 62
     7
100
AcDbLine
 10
275.0096340220771
 20
11.03925191726012
 30
0.0
 11
275.0096340220771
 21
10.84673060906061
 31
0.0
  0
LINE
  5
F7
102
{ACAD_REACTORS
330
136
102
}
330
4A
100
AcDbEntity
  8
1
  6
Continuous
 62
     7
100
AcDbLine
 10
275.0096340220771
 20
14.15326939093939
 30
0.0
 11
275.0096340220771
 21
11.03925191726012
 31
0.0
  0
LINE
  5
F8
102
{ACAD_REACTORS
330
137
102
}
330
4A
100
AcDbEntity
  8
1
  6
Continuous
 62
     7
100
AcDbLine
 10
278.1763932042522
 20
8.44261746498523
 30
0.0
 11
276.0098190530771
 21
9.6925640906702
 31
0.0
  0
LINE
  5
F9
102
{ACAD_REACTORS
330
137
102
}
330
4A
100
AcDbEntity
  8
1
  6
Continuous
 62
     7
100
AcDbLine
 10
276.3429673554056
 20
10.27002114802599
 30
0.0
 11
278.5095415065662
 21
9.02007452235557
 31
0.0
  0
LINE
  5
FA
102
{ACAD_REACTORS
330
137
102
}
330
4A
100
AcDbEntity
  8
1
  6
Continuous
 62
     7
100
AcDbLine
 10
276.3429673554056
 20
14.92250016016624
 30
0.0
 11
276.3429673554056
 21
10.27002114802599
 31
0.0
  0
LINE
  5
FB
102
{ACAD_REACTORS
330
137
102
}
330
4A
100
AcDbEntity
  8
1
  6
Continuous
 62
     7
100
AcDbLine
 10
275.6763006887413
 20
10.27002114802599
 30
0.0
 11
275.6763006887413
 21
14.92250016016624
 31
0.0
  0
LINE
  5
FC
102
{ACAD_REACTORS
330
138
102
}
330
4A
100
AcDbEntity
  8
1
  6
Continuous
 62
     7
100
AcDbLine
 10
279.8485336717858
 20
15.86370041828195
 30
0.0
 11
278.6763006887413
 21
13.83333333333576
 31
0.0
  0
LINE
  5
FD
102
{ACAD_REACTORS
330
138
102
}
330
4A
100
AcDbEntity
  8
1
  6
Continuous
 62
     7
100
AcDbLine
 10
280.3429673554056
 20
9.30826907059964
 30
0.0
 11
280.3429673554056
 21
15.73121731203719
 31
0.0
  0
LINE
  5
FE
102
{ACAD_REACTORS
330
138
102
}
330
4A
100
AcDbEntity
  8
1
  6
Continuous
 62
     7
100
AcDbLine
 10
279.6763006887413
 20
12.5
 30
0.0
 11
279.6763006887413
 21
9.30826907059964
 31
0.0
  0
LINE
  5
FF
102
{ACAD_REACTORS
330
138
102
}
330
4A
100
AcDbEntity
  8
1
  6
Continuous
 62
     7
100
AcDbLine
 10
277.6763006887413
 20
10.84758507263177
 30
0.0
 11
277.6763006887413
 21
12.5
 31
0.0
  0
LINE
  5
100
102
{ACAD_REACTORS
330
138
102
}
330
4A
100
AcDbEntity
  8
1
  6
Continuous
 62
     7
100
AcDbLine
 10
277.0096340220771
 20
12.5
 30
0.0
 11
277.0096340220771
 21
10.84758507263177
 31
0.0
  0
LINE
  5
101
102
{ACAD_REACTORS
330
138
102
}
330
4A
100
AcDbEntity
  8
1
  6
Continuous
 62
     7
100
AcDbLine
 10
277.5040677056968
 20
15.86370041828195
 30
0.0
 11
278.6763006887413
 21
13.83333333333576
 31
0.0
  0
LINE
  5
102
102
{ACAD_REACTORS
330
138
102
}
330
4A
100
AcDbEntity
  8
1
  6
Continuous
 62
     7
100
AcDbLine
 10
277.0096340220771
 20
12.5
 30
0.0
 11
277.0096340220771
 21
15.73121731203719
 31
0.0
  0
LINE
  5
103
330
4A
100
AcDbEntity
  8
1
  6
Continuous
 62
     7
100
AcDbLine
 10
278.6763006887413
 20
7.5
 30
0.0
 11
270.2598654136018
 21
12.35563573565742
 31
0.0
  0
LINE
  5
104
330
4A
100
AcDbEntity
  8
1
  6
Continuous
 62
     7
100
AcDbLine
 10
287.0927359638808
 20
12.35563573565742
 30
0.0
 11
278.6763006887413
 21
7.5
 31
0.0
  0
LINE
  5
105
330
4A
100
AcDbEntity
  8
1
  6
Continuous
 62
     7
100
AcDbLine
 10
278.6763006887413
 20
17.5
 30
0.0
 11
287.0927359638808
 21
12.64436426433531
 31
0.0
  0
LINE
  5
106
330
4A
100
AcDbEntity
  8
1
  6
Continuous
 62
     7
100
AcDbLine
 10
270.2598654136018
 20
12.64436426433531
 30
0.0
 11
278.6763006887413
 21
17.5
 31
0.0
  0
LINE
  5
107
102
{ACAD_REACTORS
330
138
102
}
330
4A
100
AcDbEntity
  8
1
  6
Continuous
 62
     7
100
AcDbLine
 10
277.6763006887413
 20
14.2320508075718
 30
0.0
 11
277.6763006887413
 21
12.5
 31
0.0
  0
LINE
  5
108
102
{ACAD_REACTORS
330
138
102
}
330
4A
100
AcDbEntity
  8
1
  6
Continuous
 62
     7
100
AcDbLine
 10
278.531963121437
 20
12.75
 30
0.0
 11
277.6763006887413
 21
14.2320508075718
 31
0.0
  0
LINE
  5
109
102
{ACAD_REACTORS
330
138
102
}
330
4A
100
AcDbEntity
  8
1
  6
Continuous
 62
     7
100
AcDbLine
 10
279.6763006887413
 20
14.2320508075718
 30
0.0
 11
278.8206382560384
 21
12.75
 31
0.0
  0
LINE
  5
10A
102
{ACAD_REACTORS
330
138
102
}
330
4A
100
AcDbEntity
  8
1
  6
Continuous
 62
     7
100
AcDbLine
 10
279.6763006887413
 20
12.5
 30
0.0
 11
279.6763006887413
 21
14.2320508075718
 31
0.0
  0
LINE
  5
10B
102
{ACAD_REACTORS
330
135
102
}
330
4A
100
AcDbEntity
  8
1
  6
Continuous
 62
     7
100
AcDbLine
 10
281.0096340220771
 20
10.07749983982649
 30
0.0
 11
281.0096340220771
 21
14.92250016016624
 31
0.0
  0
LINE
  5
10C
330
4A
100
AcDbEntity
  8
1
  6
Continuous
 62
     7
100
AcDbLine
 10
292.0
 20
189.0
 30
0.0
 11
5.0
 21
189.0
 31
0.0
  0
LINE
  5
10D
330
4A
100
AcDbEntity
  8
1
  6
Continuous
 62
     7
100
AcDbLine
 10
292.0
 20
5.0
 30
0.0
 11
292.0
 21
189.0
 31
0.0
  0
LINE
  5
10E
330
4A
100
AcDbEntity
  8
1
  6
Continuous
 62
     7
100
AcDbLine
 10
5.0
 20
5.0
 30
0.0
 11
292.0
 21
5.0
 31
0.0
  0
LINE
  5
10F
330
4A
100
AcDbEntity
  8
1
  6
Continuous
 62
     7
100
AcDbLine
 10
297.0
 20
0.0
 30
0.0
 11
297.0
 21
210.0
 31
0.0
  0
LINE
  5
110
330
4A
100
AcDbEntity
  8
1
  6
Continuous
 62
     7
100
AcDbLine
 10
297.0
 20
210.0
 30
0.0
 11
0.0
 21
210.0
 31
0.0
  0
LINE
  5
111
330
4A
100
AcDbEntity
  8
1
  6
Continuous
 62
     7
100
AcDbLine
 10
0.0
 20
210.0
 30
0.0
 11
0.0
 21
0.0
 31
0.0
  0
LINE
  5
112
330
4A
100
AcDbEntity
  8
1
  6
Continuous
 62
     7
100
AcDbLine
 10
0.0
 20
0.0
 30
0.0
 11
297.0
 21
0.0
 31
0.0
  0
LINE
  5
113
330
4A
100
AcDbEntity
  8
1
  6
Continuous
 62
     7
100
AcDbLine
 10
148.5
 20
210.0
 30
0.0
 11
148.5
 21
195.0
 31
0.0
  0
LINE
  5
114
330
4A
100
AcDbEntity
  8
1
  6
Continuous
 62
     7
100
AcDbLine
 10
138.0
 20
20.0
 30
0.0
 11
138.0
 21
5.0
 31
0.0
  0
LINE
  5
115
330
4A
100
AcDbEntity
  8
1
  6
Continuous
 62
     7
100
AcDbLine
 10
265.3526013774826
 20
20.0
 30
0.0
 11
265.3526013774826
 21
5.0
 31
0.0
  0
LINE
  5
116
330
4A
100
AcDbEntity
  8
1
  6
Continuous
 62
     7
100
AcDbLine
 10
248.0
 20
20.0
 30
0.0
 11
248.0
 21
5.0
 31
0.0
  0
LINE
  5
117
330
4A
100
AcDbEntity
  8
1
  6
Continuous
 62
     7
100
AcDbLine
 10
108.0
 20
15.0
 30
0.0
 11
138.0
 21
15.0
 31
0.0
  0
LINE
  5
118
330
4A
100
AcDbEntity
  8
1
  6
Continuous
 62
     7
100
AcDbLine
 10
108.0
 20
10.0
 30
0.0
 11
138.0
 21
10.0
 31
0.0
  0
ARC
  5
119
102
{ACAD_REACTORS
330
135
102
}
330
4A
100
AcDbEntity
  8
1
  6
Continuous
 62
     7
100
AcDbCircle
 10
282.6763006887413
 20
10.84673060906061
 30
0.0
 40
0.333333333337662
100
AcDbArc
 50
299.9816393693501
 51
119.981639368266
  0
ARC
  5
11A
102
{ACAD_REACTORS
330
135
102
}
330
4A
100
AcDbEntity
  8
1
  6
Continuous
 62
     7
100
AcDbCircle
 10
282.6763006887413
 20
12.5
 30
0.0
 40
0.3333333333284791
100
AcDbArc
 50
270.0
 51
90.0
  0
ARC
  5
11B
102
{ACAD_REACTORS
330
135
102
}
330
4A
100
AcDbEntity
  8
1
  6
Continuous
 62
     7
100
AcDbCircle
 10
282.6763006887413
 20
14.15326939093939
 30
0.0
 40
0.333333333327736
100
AcDbArc
 50
240.0183606311094
 51
60.01836063002557
  0
ARC
  5
11C
102
{ACAD_REACTORS
330
136
102
}
330
4A
100
AcDbEntity
  8
1
  6
Continuous
 62
     7
100
AcDbCircle
 10
274.6763006887413
 20
10.84673060906061
 30
0.0
 40
0.3333333333357018
100
AcDbArc
 50
180.0
 51
0.0
  0
ARC
  5
11D
102
{ACAD_REACTORS
330
136
102
}
330
4A
100
AcDbEntity
  8
1
  6
Continuous
 62
     7
100
AcDbCircle
 10
274.6763006887413
 20
14.15326939093939
 30
0.0
 40
0.3333333333357587
100
AcDbArc
 50
0.0
 51
180.0
  0
ARC
  5
11E
102
{ACAD_REACTORS
330
137
102
}
330
4A
100
AcDbEntity
  8
1
  6
Continuous
 62
     7
100
AcDbCircle
 10
278.3429673554056
 20
8.73134599367768
 30
0.0
 40
0.3333333333367569
100
AcDbArc
 50
240.0183606334253
 51
60.018360631109
  0
ARC
  5
11F
102
{ACAD_REACTORS
330
137
102
}
330
4A
100
AcDbEntity
  8
1
  6
Continuous
 62
     7
100
AcDbCircle
 10
276.0096340220771
 20
14.92250016016624
 30
0.0
 40
0.3333333333285395
100
AcDbArc
 50
0.0
 51
180.0
  0
ARC
  5
120
102
{ACAD_REACTORS
330
138
102
}
330
4A
100
AcDbEntity
  8
1
  6
Continuous
 62
     7
100
AcDbCircle
 10
280.0780011429306
 20
15.73121731203719
 30
0.0
 40
0.2649662124750307
100
AcDbArc
 50
0.0
 51
149.999999998306
  0
ARC
  5
121
102
{ACAD_REACTORS
330
138
102
}
330
4A
100
AcDbEntity
  8
1
  6
Continuous
 62
     7
100
AcDbCircle
 10
280.0096340220771
 20
9.30826907059964
 30
0.0
 40
0.3333333333357587
100
AcDbArc
 50
180.0
 51
0.0
  0
ARC
  5
122
102
{ACAD_REACTORS
330
138
102
}
330
4A
100
AcDbEntity
  8
1
  6
Continuous
 62
     7
100
AcDbCircle
 10
277.3429673554056
 20
10.84758507263177
 30
0.0
 40
0.3333333333285395
100
AcDbArc
 50
180.0
 51
0.0
  0
ARC
  5
123
102
{ACAD_REACTORS
330
138
102
}
330
4A
100
AcDbEntity
  8
1
  6
Continuous
 62
     7
100
AcDbCircle
 10
277.2746002345521
 20
15.73121731203719
 30
0.0
 40
0.2649662124758516
100
AcDbArc
 50
30.00000000170628
 51
180.0
  0
ARC
  5
124
102
{ACAD_REACTORS
330
135
102
}
330
4A
100
AcDbEntity
  8
1
  6
Continuous
 62
     7
100
AcDbCircle
 10
281.3429673554056
 20
10.07749983982649
 30
0.0
 40
0.3333333333285395
100
AcDbArc
 50
180.0
 51
299.9816393688907
  0
ARC
  5
125
102
{ACAD_REACTORS
330
135
102
}
330
4A
100
AcDbEntity
  8
1
  6
Continuous
 62
     7
100
AcDbCircle
 10
281.3429673554056
 20
14.92250016016624
 30
0.0
 40
0.3333333333340337
100
AcDbArc
 50
60.01836063173398
 51
180.0
  0
ARC
  5
126
330
4A
100
AcDbEntity
  8
1
  6
Continuous
 62
     7
100
AcDbCircle
 10
287.0094488882969
 20
12.5
 30
0.0
 40
0.1666666666688018
100
AcDbArc
 50
299.9816393693333
 51
60.01836062941796
  0
ARC
  5
127
330
4A
100
AcDbEntity
  8
1
  6
Continuous
 62
     7
100
AcDbCircle
 10
270.3431524891857
 20
12.5
 30
0.0
 40
0.1666666666625056
100
AcDbArc
 50
119.981639370582
 51
240.0183606306667
  0
ARC
  5
128
102
{ACAD_REACTORS
330
137
102
}
330
4A
100
AcDbEntity
  8
1
  6
Continuous
 62
     7
100
AcDbCircle
 10
276.3429673554056
 20
10.27002114802599
 30
0.0
 40
0.6666666666642982
100
AcDbArc
 50
180.0
 51
240.0183606305631
  0
ARC
  5
129
102
{ACAD_REACTORS
330
138
102
}
330
4A
100
AcDbEntity
  8
1
  6
Continuous
 62
     7
100
AcDbCircle
 10
278.6763006887413
 20
12.83333333333576
 30
0.0
 40
0.1666666666738669
100
AcDbArc
 50
209.9999999995343
 51
329.9999999992247
  0
MTEXT
  5
12B
330
4A
100
AcDbEntity
  8
1
 62
     7
100
AcDbMText
 10
256.6763006887413
 20
10.06063942075707
 30
0.0
 40
4.5
 41
0.0
 71
     5
 72
     1
  1
1:1
  7
CONVERTER_12
 73
     1
 44
1.32052821128451
  0
MTEXT
  5
12C
330
4A
100
AcDbEntity
  8
1
 62
     7
100
AcDbMText
 10
256.6763006887413
 20
16.26063942076144
 30
0.0
 40
3.0
 41
0.0
 71
     5
 72
     1
  1
Scale
  7
CONVERTER_12
 73
     1
 44
1.32052821128451
  0
MTEXT
  5
12D
330
4A
100
AcDbEntity
  8
1
 62
     7
100
AcDbMText
 10
144.2763006887399
 20
12.5
 30
0.0
 40
4.5
 41
0.0
 71
     4
 72
     1
  1
CR 10 DF\PDocking frame 10P
  7
CONVERTER_12
 73
     1
 44
0.90036014405762
  0
MTEXT
  5
12E
330
4A
100
AcDbEntity
  8
1
 62
     7
100
AcDbMText
 10
151.5
 20
194.0
 30
0.0
 40
4.0
 41
0.0
 71
     5
 72
     1
  1
Diritti riservati      All rights reserved
  7
CONVERTER_12
 73
     1
 44
1.32052821128451
  0
MTEXT
  5
130
330
4A
100
AcDbEntity
  8
1
 62
     7
100
AcDbMText
 10
123.0
 20
17.5
 30
0.0
 40
2.5
 41
0.0
 71
     5
 72
     1
  1
dimensions in mm
  7
CONVERTER_13
 73
     1
 44
0.60024009603842
  0
MTEXT
  5
131
330
4A
100
AcDbEntity
  8
1
 62
     7
100
AcDbMText
 10
109.0
 20
12.5
 30
0.0
 40
3.0
 41
0.0
 71
     4
 72
     1
  1
Date
  7
CONVERTER_12
 73
     1
 44
1.32052821128451
  0
MTEXT
  5
132
330
4A
100
AcDbEntity
  8
1
 62
     7
100
AcDbMText
 10
119.5999999999985
 20
12.5
 30
0.0
 40
3.0
 41
0.0
 71
     4
 72
     1
  1
26/03/14
  7
CONVERTER_12
 73
     1
 44
1.32052821128451
  0
MTEXT
  5
133
330
4A
100
AcDbEntity
  8
1
 62
     7
100
AcDbMText
 10
109.0
 20
7.5
 30
0.0
 40
3.0
 41
0.0
 71
     4
 72
     1
  1
Sign.
  7
CONVERTER_12
 73
     1
 44
1.32052821128451
  0
MTEXT
  5
134
330
4A
100
AcDbEntity
  8
1
 62
     7
100
AcDbMText
 10
119.5999999999985
 20
7.5
 30
0.0
 40
3.0
 41
0.0
 71
     4
 72
     1
  1
Radice
  7
CONVERTER_12
 73
     1
 44
1.32052821128451
  0
HATCH
  5
135
330
4A
100
AcDbEntity
  8
1
  6
Continuous
 62
     7
100
AcDbHatch
 10
0.0
 20
0.0
 30
0.0
210
0.0
220
0.0
230
1.0
  2
SOLID
 70
     1
 71
     1
 91
        1
 92
        1
 93
       14
 72
     2
 10
281.3429673554056
 20
14.92250016016624
 40
0.3333333333340337
 50
60.01836063173398
 51
180.0
 73
     1
 72
     1
 10
281.0096340220771
 20
14.92250016016624
 11
281.0096340220771
 21
10.07749983982649
 72
     2
 10
281.3429673554056
 20
10.07749983982649
 40
0.3333333333285395
 50
180.0
 51
299.9816393688907
 73
     1
 72
     1
 10
281.5095415065662
 20
9.788771311148594
 11
282.8428748399092
 21
10.55800208037545
 72
     2
 10
282.6763006887413
 20
10.84673060906061
 40
0.333333333337662
 50
299.9816393693501
 51
479.981639368266
 73
     1
 72
     1
 10
282.5097265375807
 20
11.13545913774578
 11
281.6763006887413
 21
10.65463653265033
 72
     1
 10
281.6763006887413
 20
10.65463653265033
 11
281.6763006887413
 21
12.16666666667152
 72
     1
 10
281.6763006887413
 20
12.16666666667152
 11
282.6763006887413
 21
12.16666666667152
 72
     2
 10
282.6763006887413
 20
12.5
 40
0.3333333333284791
 50
270.0
 51
450.0
 73
     1
 72
     1
 10
282.6763006887413
 20
12.83333333333576
 11
281.6763006887413
 21
12.83333333333576
 72
     1
 10
281.6763006887413
 20
12.83333333333576
 11
281.6763006887413
 21
14.34536346734967
 72
     1
 10
281.6763006887413
 20
14.34536346734967
 11
282.5097265375807
 21
13.86454086226149
 72
     2
 10
282.6763006887413
 20
14.15326939093939
 40
0.333333333327736
 50
240.0183606311094
 51
420.0183606300256
 73
     1
 72
     1
 10
282.8428748399092
 20
14.44199791961728
 11
281.5095415065662
 21
15.21122868885141
 97
       14
330
11B
330
F3
330
F2
330
F1
330
11A
330
F0
330
EF
330
EE
330
119
330
ED
330
124
330
10B
330
125
330
F4
 75
     0
 76
     1
 98
        1
 10
0.0
 20
0.0
  0
HATCH
  5
136
330
4A
100
AcDbEntity
  8
1
  6
Continuous
 62
     7
100
AcDbHatch
 10
0.0
 20
0.0
 30
0.0
210
0.0
220
0.0
230
1.0
  2
SOLID
 70
     1
 71
     1
 91
        1
 92
        1
 93
        5
 72
     2
 10
274.6763006887413
 20
14.15326939093939
 40
0.3333333333357587
 50
0.0
 51
180.0
 73
     1
 72
     1
 10
274.3429673554056
 20
14.15326939093939
 11
274.3429673554056
 21
10.84673060906061
 72
     2
 10
274.6763006887413
 20
10.84673060906061
 40
0.3333333333357018
 50
180.0
 51
360.0
 73
     1
 72
     1
 10
275.0096340220771
 20
10.84673060906061
 11
275.0096340220771
 21
11.03925191726012
 72
     1
 10
275.0096340220771
 20
11.03925191726012
 11
275.0096340220771
 21
14.15326939093939
 97
        5
330
11D
330
F5
330
11C
330
F6
330
F7
 75
     0
 76
     1
 98
        1
 10
0.0
 20
0.0
  0
HATCH
  5
137
330
4A
100
AcDbEntity
  8
1
  6
Continuous
 62
     7
100
AcDbHatch
 10
0.0
 20
0.0
 30
0.0
210
0.0
220
0.0
230
1.0
  2
SOLID
 70
     1
 71
     1
 91
        1
 92
        1
 93
        7
 72
     2
 10
276.0096340220771
 20
14.92250016016624
 40
0.3333333333285395
 50
0.0
 51
180.0
 73
     1
 72
     1
 10
275.6763006887413
 20
14.92250016016624
 11
275.6763006887413
 21
10.27002114802599
 72
     2
 10
276.3429673554056
 20
10.27002114802599
 40
0.6666666666642982
 50
180.0
 51
240.0183606305631
 73
     1
 72
     1
 10
276.0098190530771
 20
9.692564090670203
 11
278.1763932042522
 21
8.442617464985233
 72
     2
 10
278.3429673554056
 20
8.731345993677678
 40
0.3333333333367569
 50
240.0183606334253
 51
420.018360631109
 73
     1
 72
     1
 10
278.5095415065662
 20
9.020074522355571
 11
276.3429673554056
 21
10.27002114802599
 72
     1
 10
276.3429673554056
 20
10.27002114802599
 11
276.3429673554056
 21
14.92250016016624
 97
        7
330
11F
330
FB
330
128
330
F8
330
11E
330
F9
330
FA
 75
     0
 76
     1
 98
        1
 10
0.0
 20
0.0
  0
HATCH
  5
138
330
4A
100
AcDbEntity
  8
1
  6
Continuous
 62
     7
100
AcDbHatch
 10
0.0
 20
0.0
 30
0.0
210
0.0
220
0.0
230
1.0
  2
SOLID
 70
     1
 71
     1
 91
        1
 92
        1
 93
       16
 72
     2
 10
280.0780011429306
 20
15.73121731203719
 40
0.2649662124750307
 50
210.000000001694
 51
360.0
 73
     0
 72
     1
 10
280.3429673554056
 20
15.73121731203719
 11
280.3429673554056
 21
9.308269070599636
 72
     2
 10
280.0096340220771
 20
9.308269070599636
 40
0.3333333333357587
 50
0.0
 51
180.0
 73
     0
 72
     1
 10
279.6763006887413
 20
9.308269070599636
 11
279.6763006887413
 21
12.5
 72
     1
 10
279.6763006887413
 20
12.5
 11
279.6763006887413
 21
14.2320508075718
 72
     1
 10
279.6763006887413
 20
14.2320508075718
 11
278.8206382560384
 21
12.75
 72
     2
 10
278.6763006887413
 20
12.83333333333576
 40
0.1666666666738669
 50
30.00000000077526
 51
150.0000000004656
 73
     0
 72
     1
 10
278.531963121437
 20
12.75
 11
277.6763006887413
 21
14.2320508075718
 72
     1
 10
277.6763006887413
 20
14.2320508075718
 11
277.6763006887413
 21
12.5
 72
     1
 10
277.6763006887413
 20
12.5
 11
277.6763006887413
 21
10.84758507263177
 72
     2
 10
277.3429673554056
 20
10.84758507263177
 40
0.3333333333285395
 50
0.0
 51
180.0
 73
     0
 72
     1
 10
277.0096340220771
 20
10.84758507263177
 11
277.0096340220771
 21
12.5
 72
     1
 10
277.0096340220771
 20
12.5
 11
277.0096340220771
 21
15.73121731203719
 72
     2
 10
277.2746002345521
 20
15.73121731203719
 40
0.2649662124758516
 50
180.0
 51
329.9999999982937
 73
     0
 72
     1
 10
277.5040677056968
 20
15.86370041828195
 11
278.6763006887413
 21
13.83333333333576
 72
     1
 10
278.6763006887413
 20
13.83333333333576
 11
279.8485336717858
 21
15.86370041828195
 97
       16
330
101
330
123
330
102
330
100
330
122
330
FF
330
107
330
108
330
129
330
109
330
10A
330
FE
330
121
330
FD
330
120
330
FC
 75
     0
 76
     1
 98
        1
 10
0.0
 20
0.0
  0
ENDBLK
  5
4C
330
4A
100
AcDbEntity
  8
0
100
AcDbBlockEnd
  0
BLOCK
  5
4F
330
4D
100
AcDbEntity
  8
0
100
AcDbBlockBegin
  2
A4_oriz
 70
     0
 10
297.0
 20
0.0
 30
0.0
  3
A4_oriz
  1

  0
INSERT
  5
4E
330
4D
100
AcDbEntity
  8
1
100
AcDbBlockReference
  2
_formato_A4
 10
297.0
 20
0.0
 30
0.0
  0
ENDBLK
  5
50
330
4D
100
AcDbEntity
  8
0
100
AcDbBlockEnd
  0
BLOCK
  5
88
330
80
100
AcDbEntity
  8
0
100
AcDbBlockBegin
  2
*D4
 70
     1
 10
0.0
 20
0.0
 30
0.0
  3
*D4
  1

  0
LINE
  5
81
330
80
100
AcDbEntity
  8
1
  6
Continuous
 62
     2
100
AcDbLine
 10
34127.26925948829
 20
47994.60745210051
 30
0.0
 11
34127.26925948829
 21
47927.10745210051
 31
0.0
  0
LINE
  5
82
330
80
100
AcDbEntity
  8
1
  6
Continuous
 62
     2
100
AcDbLine
 10
34100.3334000029
 20
47994.60745210051
 30
0.0
 11
34115.79664723539
 21
47994.60745210051
 31
0.0
  0
LINE
  5
83
330
80
100
AcDbEntity
  8
1
  6
Continuous
 62
     2
100
AcDbLine
 10
34118.19545688989
 20
47994.60745210051
 30
0.0
 11
34129.26925948829
 21
47994.60745210051
 31
0.0
  0
LINE
  5
84
330
80
100
AcDbEntity
  8
1
  6
Continuous
 62
     2
100
AcDbLine
 10
34100.3334000029
 20
47927.10745210051
 30
0.0
 11
34129.26925948829
 21
47927.10745210051
 31
0.0
  0
SOLID
  5
85
330
80
100
AcDbEntity
  8
1
 62
     2
100
AcDbTrace
 10
34128.05917447381
 20
47988.60745210051
 30
0.0
 11
34126.47934450277
 21
47988.60745210051
 31
0.0
 12
34127.26925948829
 22
47994.60745210051
 32
0.0
 13
34127.26925948829
 23
47994.60745210051
 33
0.0
  0
SOLID
  5
86
330
80
100
AcDbEntity
  8
1
 62
     2
100
AcDbTrace
 10
34126.47934450277
 20
47933.10745210051
 30
0.0
 11
34128.05917447381
 21
47933.10745210051
 31
0.0
 12
34127.26925948829
 22
47927.10745210051
 32
0.0
 13
34127.26925948829
 23
47927.10745210051
 33
0.0
  0
MTEXT
  5
87
330
80
100
AcDbEntity
  8
1
 62
     4
100
AcDbMText
 10
34122.66925948828
 20
47952.60745210051
 30
0.0
 40
6.0
 41
0.0
 71
     7
 72
     1
  1
67,5
  7
CONVERTER_11
 11
0.0
 21
1.0
 31
0.0
 73
     1
 44
0.60024009603842
  0
ENDBLK
  5
89
330
80
100
AcDbEntity
  8
0
100
AcDbBlockEnd
  0
BLOCK
  5
94
330
8C
100
AcDbEntity
  8
0
100
AcDbBlockBegin
  2
*D5
 70
     1
 10
0.0
 20
0.0
 30
0.0
  3
*D5
  1

  0
LINE
  5
8D
330
8C
100
AcDbEntity
  8
1
  6
Continuous
 62
     2
100
AcDbLine
 10
34144.77249102208
 20
48009.35745210051
 30
0.0
 11
34144.77249102208
 21
47912.35745210051
 31
0.0
  0
LINE
  5
8E
330
8C
100
AcDbEntity
  8
1
  6
Continuous
 62
     2
100
AcDbLine
 10
34087.0834000029
 20
48009.35745210051
 30
0.0
 11
34115.8013282728
 21
48009.35745210051
 31
0.0
  0
LINE
  5
8F
330
8C
100
AcDbEntity
  8
1
  6
Continuous
 62
     2
100
AcDbLine
 10
34118.21028455109
 20
48009.35745210051
 30
0.0
 11
34146.77249102208
 21
48009.35745210051
 31
0.0
  0
LINE
  5
90
330
8C
100
AcDbEntity
  8
1
  6
Continuous
 62
     2
100
AcDbLine
 10
34087.0834000029
 20
47912.35745210051
 30
0.0
 11
34146.77249102208
 21
47912.35745210051
 31
0.0
  0
SOLID
  5
91
330
8C
100
AcDbEntity
  8
1
 62
     2
100
AcDbTrace
 10
34145.5624060076
 20
48003.35745210051
 30
0.0
 11
34143.98257603656
 21
48003.35745210051
 31
0.0
 12
34144.77249102208
 22
48009.35745210051
 32
0.0
 13
34144.77249102208
 23
48009.35745210051
 33
0.0
  0
SOLID
  5
92
330
8C
100
AcDbEntity
  8
1
 62
     2
100
AcDbTrace
 10
34143.98257603656
 20
47918.35745210051
 30
0.0
 11
34145.5624060076
 21
47918.35745210051
 31
0.0
 12
34144.77249102208
 22
47912.35745210051
 32
0.0
 13
34144.77249102208
 23
47912.35745210051
 33
0.0
  0
MTEXT
  5
93
330
8C
100
AcDbEntity
  8
1
 62
     4
100
AcDbMText
 10
34140.77249102208
 20
47956.35745210051
 30
0.0
 40
6.0
 41
0.0
 71
     7
 72
     1
  1
97
  7
CONVERTER_11
 11
0.0
 21
1.0
 31
0.0
 73
     1
 44
0.60024009603842
  0
ENDBLK
  5
95
330
8C
100
AcDbEntity
  8
0
100
AcDbBlockEnd
  0
BLOCK
  5
A1
330
98
100
AcDbEntity
  8
0
100
AcDbBlockBegin
  2
*D6
 70
     1
 10
0.0
 20
0.0
 30
0.0
  3
*D6
  1

  0
LINE
  5
99
330
98
100
AcDbEntity
  8
1
  6
Continuous
 62
     2
100
AcDbLine
 10
34061.58340000291
 20
48048.7950543483
 30
0.0
 11
34099.58340000291
 21
48048.7950543483
 31
0.0
  0
LINE
  5
9A
330
98
100
AcDbEntity
  8
1
  6
Continuous
 62
     2
100
AcDbLine
 10
34061.58340000291
 20
48005.85745210051
 30
0.0
 11
34061.58340000291
 21
48030.0808391014
 31
0.0
  0
LINE
  5
9B
330
98
100
AcDbEntity
  8
1
  6
Continuous
 62
     2
100
AcDbLine
 10
34061.58340000291
 20
48032.0808391014
 30
0.0
 11
34061.58340000291
 21
48050.7950543483
 31
0.0
  0
LINE
  5
9C
330
98
100
AcDbEntity
  8
1
  6
Continuous
 62
     2
100
AcDbLine
 10
34099.58340000291
 20
48032.08476500989
 30
0.0
 11
34099.58340000291
 21
48050.7950543483
 31
0.0
  0
LINE
  5
9D
330
98
100
AcDbEntity
  8
1
  6
Continuous
 62
     2
100
AcDbLine
 10
34099.58340000291
 20
48005.85745210051
 30
0.0
 11
34099.58340000291
 21
48030.07912317659
 31
0.0
  0
SOLID
  5
9E
330
98
100
AcDbEntity
  8
1
 62
     2
100
AcDbTrace
 10
34067.58340000291
 20
48049.58496933382
 30
0.0
 11
34067.58340000291
 21
48048.00513936278
 31
0.0
 12
34061.58340000291
 22
48048.7950543483
 32
0.0
 13
34061.58340000291
 23
48048.7950543483
 33
0.0
  0
SOLID
  5
9F
330
98
100
AcDbEntity
  8
1
 62
     2
100
AcDbTrace
 10
34093.58340000291
 20
48048.00513936278
 30
0.0
 11
34093.58340000291
 21
48049.58496933382
 31
0.0
 12
34099.58340000291
 22
48048.7950543483
 32
0.0
 13
34099.58340000291
 23
48048.7950543483
 33
0.0
  0
MTEXT
  5
A0
330
98
100
AcDbEntity
  8
1
 62
     4
100
AcDbMText
 10
34076.08340000291
 20
48052.7950543483
 30
0.0
 40
6.0
 41
0.0
 71
     7
 72
     1
  1
38
  7
CONVERTER_11
 11
0.9999999999970619
 21
2.424068405545306E-6
 31
0.0
 73
     1
 44
0.60024009603842
  0
ENDBLK
  5
A2
330
98
100
AcDbEntity
  8
0
100
AcDbBlockEnd
  0
BLOCK
  5
AE
330
A5
100
AcDbEntity
  8
0
100
AcDbBlockBegin
  2
*D7
 70
     1
 10
0.0
 20
0.0
 30
0.0
  3
*D7
  1

  0
LINE
  5
A6
330
A5
100
AcDbEntity
  8
1
  6
Continuous
 62
     2
100
AcDbLine
 10
34117.0013282728
 20
47987.3574521005
 30
0.0
 11
34117.0013282728
 21
47999.3574521005
 31
0.0
  0
LINE
  5
A7
330
A5
100
AcDbEntity
  8
1
  6
Continuous
 62
     2
100
AcDbLine
 10
34117.0013282728
 20
47999.3574521005
 30
0.0
 11
34117.0013282728
 21
48004.3574521005
 31
0.0
  0
LINE
  5
A8
330
A5
100
AcDbEntity
  8
1
  6
Continuous
 62
     2
100
AcDbLine
 10
34117.0013282728
 20
48004.3574521005
 30
0.0
 11
34117.0013282728
 21
48024.45745210049
 31
0.0
  0
LINE
  5
A9
330
A5
100
AcDbEntity
  8
1
  6
Continuous
 62
     2
100
AcDbLine
 10
34100.58340000291
 20
47999.3574521005
 30
0.0
 11
34119.0013282728
 21
47999.3574521005
 31
0.0
  0
LINE
  5
AA
330
A5
100
AcDbEntity
  8
1
  6
Continuous
 62
     2
100
AcDbLine
 10
34100.58340000291
 20
48004.3574521005
 30
0.0
 11
34119.0013282728
 21
48004.3574521005
 31
0.0
  0
SOLID
  5
AB
330
A5
100
AcDbEntity
  8
1
 62
     2
100
AcDbTrace
 10
34117.79124325833
 20
47993.3574521005
 30
0.0
 11
34116.21141328728
 21
47993.3574521005
 31
0.0
 12
34117.0013282728
 22
47999.3574521005
 32
0.0
 13
34117.0013282728
 23
47999.3574521005
 33
0.0
  0
SOLID
  5
AC
330
A5
100
AcDbEntity
  8
1
 62
     2
100
AcDbTrace
 10
34116.21141328728
 20
48010.3574521005
 30
0.0
 11
34117.79124325833
 21
48010.3574521005
 31
0.0
 12
34117.0013282728
 22
48004.3574521005
 32
0.0
 13
34117.0013282728
 23
48004.3574521005
 33
0.0
  0
MTEXT
  5
AD
330
A5
100
AcDbEntity
  8
1
 62
     4
100
AcDbMText
 10
34113.0013282728
 20
48015.93745210049
 30
0.0
 40
6.0
 41
0.0
 71
     7
 72
     1
  1
\C4;M\C4;5
  7
CONVERTER_11
 11
0.0
 21
1.0
 31
0.0
 73
     1
 44
0.60024009603842
  0
ENDBLK
  5
AF
330
A5
100
AcDbEntity
  8
0
100
AcDbBlockEnd
  0
BLOCK
  5
B9
330
B2
100
AcDbEntity
  8
0
100
AcDbBlockBegin
  2
*D8
 70
     1
 10
0.0
 20
0.0
 30
0.0
  3
*D8
  1

  0
LINE
  5
B3
330
B2
100
AcDbEntity
  8
1
  6
Continuous
 62
     2
100
AcDbLine
 10
34059.83340000291
 20
47975.1982064242
 30
0.0
 11
34101.33340000291
 21
47975.1982064242
 31
0.0
  0
LINE
  5
B4
330
B2
100
AcDbEntity
  8
1
  6
Continuous
 62
     2
100
AcDbLine
 10
34059.83340000291
 20
47991.60745210049
 30
0.0
 11
34059.83340000291
 21
47973.1982064242
 31
0.0
  0
LINE
  5
B5
330
B2
100
AcDbEntity
  8
1
  6
Continuous
 62
     2
100
AcDbLine
 10
34101.33340000291
 20
47991.60745210049
 30
0.0
 11
34101.33340000291
 21
47973.1982064242
 31
0.0
  0
SOLID
  5
B6
330
B2
100
AcDbEntity
  8
1
 62
     2
100
AcDbTrace
 10
34065.83340000291
 20
47975.98812140973
 30
0.0
 11
34065.83340000291
 21
47974.40829143868
 31
0.0
 12
34059.83340000291
 22
47975.1982064242
 32
0.0
 13
34059.83340000291
 23
47975.1982064242
 33
0.0
  0
SOLID
  5
B7
330
B2
100
AcDbEntity
  8
1
 62
     2
100
AcDbTrace
 10
34095.33340000291
 20
47974.40829143868
 30
0.0
 11
34095.33340000291
 21
47975.98812140973
 31
0.0
 12
34101.33340000291
 22
47975.1982064242
 32
0.0
 13
34101.33340000291
 23
47975.1982064242
 33
0.0
  0
MTEXT
  5
B8
330
B2
100
AcDbEntity
  8
1
 62
     4
100
AcDbMText
 10
34073.23340000292
 20
47979.79820642421
 30
0.0
 40
6.0
 41
0.0
 71
     7
 72
     1
  1
41,5
  7
CONVERTER_11
 11
0.9999999999970619
 21
2.424068405545306E-6
 31
0.0
 73
     1
 44
0.60024009603842
  0
ENDBLK
  5
BA
330
B2
100
AcDbEntity
  8
0
100
AcDbBlockEnd
  0
BLOCK
  5
C6
330
BD
100
AcDbEntity
  8
0
100
AcDbBlockBegin
  2
*D9
 70
     1
 10
0.0
 20
0.0
 30
0.0
  3
*D9
  1

  0
LINE
  5
BE
330
BD
100
AcDbEntity
  8
1
  6
Continuous
 62
     2
100
AcDbLine
 10
34061.0834000029
 20
48031.0808391014
 30
0.0
 11
34073.0834000029
 21
48031.0808391014
 31
0.0
  0
LINE
  5
BF
330
BD
100
AcDbEntity
  8
1
  6
Continuous
 62
     2
100
AcDbLine
 10
34073.0834000029
 20
48031.0808391014
 30
0.0
 11
34088.0834000029
 21
48031.0808391014
 31
0.0
  0
LINE
  5
C0
330
BD
100
AcDbEntity
  8
1
  6
Continuous
 62
     2
100
AcDbLine
 10
34088.0834000029
 20
48031.0808391014
 30
0.0
 11
34100.0834000029
 21
48031.0808391014
 31
0.0
  0
LINE
  5
C1
330
BD
100
AcDbEntity
  8
1
  6
Continuous
 62
     2
100
AcDbLine
 10
34073.0834000029
 20
48008.35745210051
 30
0.0
 11
34073.0834000029
 21
48033.0808391014
 31
0.0
  0
LINE
  5
C2
330
BD
100
AcDbEntity
  8
1
  6
Continuous
 62
     2
100
AcDbLine
 10
34088.0834000029
 20
48008.35745210051
 30
0.0
 11
34088.0834000029
 21
48033.0808391014
 31
0.0
  0
SOLID
  5
C3
330
BD
100
AcDbEntity
  8
1
 62
     2
100
AcDbTrace
 10
34067.0834000029
 20
48030.29092411588
 30
0.0
 11
34067.0834000029
 21
48031.87075408692
 31
0.0
 12
34073.0834000029
 22
48031.0808391014
 32
0.0
 13
34073.0834000029
 23
48031.0808391014
 33
0.0
  0
SOLID
  5
C4
330
BD
100
AcDbEntity
  8
1
 62
     2
100
AcDbTrace
 10
34094.0834000029
 20
48031.87075408692
 30
0.0
 11
34094.0834000029
 21
48030.29092411588
 31
0.0
 12
34088.0834000029
 22
48031.0808391014
 32
0.0
 13
34088.0834000029
 23
48031.0808391014
 33
0.0
  0
MTEXT
  5
C5
330
BD
100
AcDbEntity
  8
1
 62
     4
100
AcDbMText
 10
34076.9834000029
 20
48035.0808391014
 30
0.0
 40
6.0
 41
0.0
 71
     7
 72
     1
  1
15
  7
CONVERTER_11
 11
0.9999999999970619
 21
2.424068405545306E-6
 31
0.0
 73
     1
 44
0.60024009603842
  0
ENDBLK
  5
C7
330
BD
100
AcDbEntity
  8
0
100
AcDbBlockEnd
  0
BLOCK
  5
D2
330
CA
100
AcDbEntity
  8
0
100
AcDbBlockBegin
  2
*D10
 70
     1
 10
0.0
 20
0.0
 30
0.0
  3
*D10
  1

  0
LINE
  5
CB
330
CA
100
AcDbEntity
  8
1
  6
Continuous
 62
     2
100
AcDbLine
 10
34041.63538049299
 20
48001.85745210051
 30
0.0
 11
34041.63538049299
 21
47919.85745210051
 31
0.0
  0
LINE
  5
CC
330
CA
100
AcDbEntity
  8
1
  6
Continuous
 62
     2
100
AcDbLine
 10
34057.5834000029
 20
48001.85745210051
 30
0.0
 11
34056.2802033179
 21
48001.85745210051
 31
0.0
  0
LINE
  5
CD
330
CA
100
AcDbEntity
  8
1
  6
Continuous
 62
     2
100
AcDbLine
 10
34053.78351934329
 20
48001.85745210051
 30
0.0
 11
34039.63538049299
 21
48001.85745210051
 31
0.0
  0
LINE
  5
CE
330
CA
100
AcDbEntity
  8
1
  6
Continuous
 62
     2
100
AcDbLine
 10
34057.5834000029
 20
47919.85745210051
 30
0.0
 11
34039.63538049299
 21
47919.85745210051
 31
0.0
  0
SOLID
  5
CF
330
CA
100
AcDbEntity
  8
1
 62
     2
100
AcDbTrace
 10
34042.42529547851
 20
47995.85745210051
 30
0.0
 11
34040.84546550747
 21
47995.85745210051
 31
0.0
 12
34041.63538049299
 22
48001.85745210051
 32
0.0
 13
34041.63538049299
 23
48001.85745210051
 33
0.0
  0
SOLID
  5
D0
330
CA
100
AcDbEntity
  8
1
 62
     2
100
AcDbTrace
 10
34040.84546550747
 20
47925.85745210051
 30
0.0
 11
34042.42529547851
 21
47925.85745210051
 31
0.0
 12
34041.63538049299
 22
47919.85745210051
 32
0.0
 13
34041.63538049299
 23
47919.85745210051
 33
0.0
  0
MTEXT
  5
D1
330
CA
100
AcDbEntity
  8
1
 62
     4
100
AcDbMText
 10
34037.63538049299
 20
47956.0574521005
 30
0.0
 40
6.0
 41
0.0
 71
     7
 72
     1
  1
82
  7
CONVERTER_11
 11
0.0
 21
1.0
 31
0.0
 73
     1
 44
0.60024009603842
  0
ENDBLK
  5
D3
330
CA
100
AcDbEntity
  8
0
100
AcDbBlockEnd
  0
BLOCK
  5
DB
330
D6
100
AcDbEntity
  8
0
100
AcDbBlockBegin
  2
*D11
 70
     1
 10
0.0
 20
0.0
 30
0.0
  3
*D11
  1

  0
LINE
  5
D7
330
D6
100
AcDbEntity
  8
1
  6
Continuous
 62
     2
100
AcDbLine
 10
34061.8334000029
 20
47992.60745210051
 30
0.0
 11
34045.6056389206
 21
48014.6910384078
 31
0.0
  0
LINE
  5
D8
330
D6
100
AcDbEntity
  8
1
  6
Continuous
 62
     2
100
AcDbLine
 10
34045.6056389206
 20
48014.6910384078
 30
0.0
 11
34000.8056389206
 21
48014.6910384078
 31
0.0
  0
SOLID
  5
D9
330
D6
100
AcDbEntity
  8
1
 62
     2
100
AcDbTrace
 10
34056.45966791421
 20
47998.58632901205
 30
0.0
 11
34057.73273928137
 21
47999.52182461949
 31
0.0
 12
34060.64910090162
 22
47994.21910827932
 32
0.0
 13
34060.64910090162
 23
47994.21910827932
 33
0.0
  0
MTEXT
  5
DA
330
D6
100
AcDbEntity
  8
1
 62
     4
100
AcDbMText
 10
34002.48563892068
 20
48018.6909668493
 30
0.0
 40
6.0
 41
0.0
 71
     7
 72
     1
  1
\C4;max. R\C4;2
  7
CONVERTER_11
 11
0.9999999999970619
 21
2.424068405545306E-6
 31
0.0
 73
     1
 44
0.60024009603842
  0
ENDBLK
  5
DC
330
D6
100
AcDbEntity
  8
0
100
AcDbBlockEnd
  0
BLOCK
  5
300
330
2F8
100
AcDbEntity
  8
0
100
AcDbBlockBegin
  2
*D12
 70
     1
 10
0.0
 20
0.0
 30
0.0
  3
*D12
  1

  0
LINE
  5
2F9
330
2F8
100
AcDbEntity
  8
1
  6
Continuous
 62
     2
100
AcDbLine
 10
139.0327777009225
 20
72.44158419931046
 30
0.0
 11
139.0327777009225
 21
46.64158419930754
 31
0.0
  0
LINE
  5
2FA
330
2F8
100
AcDbEntity
  8
1
  6
Continuous
 62
     2
100
AcDbLine
 10
123.5000000000073
 20
46.64158419930754
 30
0.0
 11
140.0327777009225
 21
46.64158419930754
 31
0.0
  0
LINE
  5
2FB
330
2F8
100
AcDbEntity
  8
1
  6
Continuous
 62
     2
100
AcDbLine
 10
130.1000000000059
 20
72.44158419931046
 30
0.0
 11
140.0327777009225
 21
72.44158419931046
 31
0.0
  0
LINE
  5
2FC
330
2F8
100
AcDbEntity
  8
1
  6
Continuous
 62
     2
100
AcDbLine
 10
123.5000000000073
 20
72.44158419931046
 30
0.0
 11
128.9000000000088
 21
72.44158419931046
 31
0.0
  0
SOLID
  5
2FD
330
2F8
100
AcDbEntity
  8
1
 62
     2
100
AcDbTrace
 10
139.4277351936847
 20
69.44158419931046
 30
0.0
 11
138.6378202081603
 21
69.44158419931046
 31
0.0
 12
139.0327777009225
 22
72.44158419931046
 32
0.0
 13
139.0327777009225
 23
72.44158419931046
 33
0.0
  0
SOLID
  5
2FE
330
2F8
100
AcDbEntity
  8
1
 62
     2
100
AcDbTrace
 10
138.6378202081603
 20
49.64158419930754
 30
0.0
 11
139.4277351936847
 21
49.64158419930754
 31
0.0
 12
139.0327777009225
 22
46.64158419930754
 32
0.0
 13
139.0327777009225
 23
46.64158419930754
 33
0.0
  0
MTEXT
  5
2FF
330
2F8
100
AcDbEntity
  8
1
 62
     4
100
AcDbMText
 10
137.0327777009225
 20
58.341584199309
 30
0.0
 40
3.0
 41
0.0
 71
     7
 72
     1
  1
A
  7
CONVERTER_11
 11
0.0
 21
1.0
 31
0.0
 73
     1
 44
0.60024009603842
  0
ENDBLK
  5
301
330
2F8
100
AcDbEntity
  8
0
100
AcDbBlockEnd
  0
BLOCK
  5
30D
330
304
100
AcDbEntity
  8
0
100
AcDbBlockBegin
  2
*D13
 70
     1
 10
0.0
 20
0.0
 30
0.0
  3
*D13
  1

  0
LINE
  5
305
330
304
100
AcDbEntity
  8
1
  6
Continuous
 62
     2
100
AcDbLine
 10
116.9999999999927
 20
87.9434824044074
 30
0.0
 11
126.8499999999985
 21
87.9434824044074
 31
0.0
  0
LINE
  5
306
330
304
100
AcDbEntity
  8
1
  6
Continuous
 62
     2
100
AcDbLine
 10
111.9999999999927
 20
87.9434824044074
 30
0.0
 11
116.9999999999927
 21
87.9434824044074
 31
0.0
  0
LINE
  5
307
330
304
100
AcDbEntity
  8
1
  6
Continuous
 62
     2
100
AcDbLine
 10
105.9999999999927
 20
87.9434824044074
 30
0.0
 11
111.9999999999927
 21
87.9434824044074
 31
0.0
  0
LINE
  5
308
330
304
100
AcDbEntity
  8
1
  6
Continuous
 62
     2
100
AcDbLine
 10
116.9999999999927
 20
80.64158419930754
 30
0.0
 11
116.9999999999927
 21
88.9434824044074
 31
0.0
  0
LINE
  5
309
330
304
100
AcDbEntity
  8
1
  6
Continuous
 62
     2
100
AcDbLine
 10
111.9999999999927
 20
80.64158419930754
 30
0.0
 11
111.9999999999927
 21
88.9434824044074
 31
0.0
  0
SOLID
  5
30A
330
304
100
AcDbEntity
  8
1
 62
     2
100
AcDbTrace
 10
108.9999999999927
 20
87.54852491164522
 30
0.0
 11
108.9999999999927
 21
88.3384398971696
 31
0.0
 12
111.9999999999927
 22
87.9434824044074
 32
0.0
 13
111.9999999999927
 23
87.9434824044074
 33
0.0
  0
SOLID
  5
30B
330
304
100
AcDbEntity
  8
1
 62
     2
100
AcDbTrace
 10
119.9999999999927
 20
88.3384398971696
 30
0.0
 11
119.9999999999927
 21
87.54852491164522
 31
0.0
 12
116.9999999999927
 22
87.9434824044074
 32
0.0
 13
116.9999999999927
 23
87.9434824044074
 33
0.0
  0
MTEXT
  5
30C
330
304
100
AcDbEntity
  8
1
 62
     4
100
AcDbMText
 10
122.5900000000072
 20
89.94347644119912
 30
0.0
 40
3.0
 41
0.0
 71
     7
 72
     1
  1
\C4;M\C4;5
  7
CONVERTER_11
 11
0.9999999999970619
 21
2.424068405545306E-6
 31
0.0
 73
     1
 44
0.60024009603842
  0
ENDBLK
  5
30E
330
304
100
AcDbEntity
  8
0
100
AcDbBlockEnd
  0
BLOCK
  5
31A
330
311
100
AcDbEntity
  8
0
100
AcDbBlockBegin
  2
*D14
 70
     1
 10
0.0
 20
0.0
 30
0.0
  3
*D14
  1

  0
LINE
  5
312
330
311
100
AcDbEntity
  8
1
  6
Continuous
 62
     2
100
AcDbLine
 10
37.49999999999272
 20
88.14348240442632
 30
0.0
 11
43.49999999999272
 21
88.14348240442632
 31
0.0
  0
LINE
  5
313
330
311
100
AcDbEntity
  8
1
  6
Continuous
 62
     2
100
AcDbLine
 10
43.49999999999272
 20
88.14348240442632
 30
0.0
 11
46.49999999999272
 21
88.14348240442632
 31
0.0
  0
LINE
  5
314
330
311
100
AcDbEntity
  8
1
  6
Continuous
 62
     2
100
AcDbLine
 10
46.49999999999272
 20
88.14348240442632
 30
0.0
 11
55.94999999998981
 21
88.14348240442632
 31
0.0
  0
LINE
  5
315
330
311
100
AcDbEntity
  8
1
  6
Continuous
 62
     2
100
AcDbLine
 10
43.49999999999272
 20
75.94175194452691
 30
0.0
 11
43.49999999999272
 21
89.14348240442632
 31
0.0
  0
LINE
  5
316
330
311
100
AcDbEntity
  8
1
  6
Continuous
 62
     2
100
AcDbLine
 10
46.49999999999272
 20
75.94196807072876
 30
0.0
 11
46.49999999999272
 21
89.14348240442632
 31
0.0
  0
SOLID
  5
317
330
311
100
AcDbEntity
  8
1
 62
     2
100
AcDbTrace
 10
40.49999999999272
 20
87.74852491166413
 30
0.0
 11
40.49999999999272
 21
88.53843989718851
 31
0.0
 12
43.49999999999272
 22
88.14348240442632
 32
0.0
 13
43.49999999999272
 23
88.14348240442632
 33
0.0
  0
SOLID
  5
318
330
311
100
AcDbEntity
  8
1
 62
     2
100
AcDbTrace
 10
49.49999999999272
 20
88.53843989718851
 30
0.0
 11
49.49999999999272
 21
87.74852491166413
 31
0.0
 12
46.49999999999272
 22
88.14348240442632
 32
0.0
 13
46.49999999999272
 23
88.14348240442632
 33
0.0
  0
MTEXT
  5
319
330
311
100
AcDbEntity
  8
1
 62
     4
100
AcDbMText
 10
51.68999999999849
 20
90.14347644121804
 30
0.0
 40
3.0
 41
0.0
 71
     7
 72
     1
  1
\C4;M\C4;3
  7
CONVERTER_11
 11
0.9999999999970619
 21
2.424068405545306E-6
 31
0.0
 73
     1
 44
0.60024009603842
  0
ENDBLK
  5
31B
330
311
100
AcDbEntity
  8
0
100
AcDbBlockEnd
  0
BLOCK
  5
327
330
31E
100
AcDbEntity
  8
0
100
AcDbBlockBegin
  2
*D15
 70
     1
 10
0.0
 20
0.0
 30
0.0
  3
*D15
  1

  0
LINE
  5
31F
330
31E
100
AcDbEntity
  8
1
  6
Continuous
 62
     2
100
AcDbLine
 10
129.5
 20
73.64158419930754
 30
0.0
 11
129.5
 21
67.64158419930754
 31
0.0
  0
LINE
  5
320
330
31E
100
AcDbEntity
  8
1
  6
Continuous
 62
     2
100
AcDbLine
 10
129.5
 20
80.64158419930754
 30
0.0
 11
129.5
 21
73.64158419930754
 31
0.0
  0
LINE
  5
321
330
31E
100
AcDbEntity
  8
1
  6
Continuous
 62
     2
100
AcDbLine
 10
129.5
 20
86.64158419930754
 30
0.0
 11
129.5
 21
80.64158419930754
 31
0.0
  0
LINE
  5
322
330
31E
100
AcDbEntity
  8
1
  6
Continuous
 62
     2
100
AcDbLine
 10
118.5
 20
73.64158419930754
 30
0.0
 11
130.5
 21
73.64158419930754
 31
0.0
  0
LINE
  5
323
330
31E
100
AcDbEntity
  8
1
  6
Continuous
 62
     2
100
AcDbLine
 10
117.0
 20
80.64158419930754
 30
0.0
 11
130.5
 21
80.64158419930754
 31
0.0
  0
SOLID
  5
324
330
31E
100
AcDbEntity
  8
1
 62
     2
100
AcDbTrace
 10
129.1050425072378
 20
83.64158419930754
 30
0.0
 11
129.8949574927622
 21
83.64158419930754
 31
0.0
 12
129.5
 22
80.64158419930754
 32
0.0
 13
129.5
 23
80.64158419930754
 33
0.0
  0
SOLID
  5
325
330
31E
100
AcDbEntity
  8
1
 62
     2
100
AcDbTrace
 10
129.8949574927622
 20
70.64158419930754
 30
0.0
 11
129.1050425072378
 21
70.64158419930754
 31
0.0
 12
129.5
 22
73.64158419930754
 32
0.0
 13
129.5
 23
73.64158419930754
 33
0.0
  0
MTEXT
  5
326
330
31E
100
AcDbEntity
  8
1
 62
     4
100
AcDbMText
 10
127.5
 20
76.24158419930754
 30
0.0
 40
3.0
 41
0.0
 71
     7
 72
     1
  1
7
  7
CONVERTER_11
 11
0.0
 21
1.0
 31
0.0
 73
     1
 44
0.60024009603842
  0
ENDBLK
  5
328
330
31E
100
AcDbEntity
  8
0
100
AcDbBlockEnd
  0
BLOCK
  5
332
330
32B
100
AcDbEntity
  8
0
100
AcDbBlockBegin
  2
*D16
 70
     1
 10
0.0
 20
0.0
 30
0.0
  3
*D16
  1

  0
LINE
  5
32C
330
32B
100
AcDbEntity
  8
1
  6
Continuous
 62
     2
100
AcDbLine
 10
23.99999999999272
 20
178.75
 30
0.0
 11
123.0
 21
178.75
 31
0.0
  0
LINE
  5
32D
330
32B
100
AcDbEntity
  8
1
  6
Continuous
 62
     2
100
AcDbLine
 10
123.0
 20
160.75
 30
0.0
 11
123.0
 21
179.75
 31
0.0
  0
LINE
  5
32E
330
32B
100
AcDbEntity
  8
1
  6
Continuous
 62
     2
100
AcDbLine
 10
23.99999999999272
 20
160.75
 30
0.0
 11
23.99999999999272
 21
179.75
 31
0.0
  0
SOLID
  5
32F
330
32B
100
AcDbEntity
  8
1
 62
     2
100
AcDbTrace
 10
26.99999999999272
 20
179.1449574927622
 30
0.0
 11
26.99999999999272
 21
178.3550425072378
 31
0.0
 12
23.99999999999272
 22
178.75
 32
0.0
 13
23.99999999999272
 23
178.75
 33
0.0
  0
SOLID
  5
330
330
32B
100
AcDbEntity
  8
1
 62
     2
100
AcDbTrace
 10
120.0
 20
178.3550425072378
 30
0.0
 11
120.0
 21
179.1449574927622
 31
0.0
 12
123.0
 22
178.75
 32
0.0
 13
123.0
 23
178.75
 33
0.0
  0
MTEXT
  5
331
330
32B
100
AcDbEntity
  8
1
 62
     4
100
AcDbMText
 10
71.24999999999272
 20
180.75
 30
0.0
 40
3.0
 41
0.0
 71
     7
 72
     1
  1
99
  7
CONVERTER_11
 11
0.9999999999970619
 21
2.424068405545306E-6
 31
0.0
 73
     1
 44
0.60024009603842
  0
ENDBLK
  5
333
330
32B
100
AcDbEntity
  8
0
100
AcDbBlockEnd
  0
BLOCK
  5
33D
330
336
100
AcDbEntity
  8
0
100
AcDbBlockBegin
  2
*D17
 70
     1
 10
0.0
 20
0.0
 30
0.0
  3
*D17
  1

  0
LINE
  5
337
330
336
100
AcDbEntity
  8
1
  6
Continuous
 62
     2
100
AcDbLine
 10
32.49999999999272
 20
101.25
 30
0.0
 11
114.5
 21
101.25
 31
0.0
  0
LINE
  5
338
330
336
100
AcDbEntity
  8
1
  6
Continuous
 62
     2
100
AcDbLine
 10
114.5
 20
114.9499999999971
 30
0.0
 11
114.5
 21
100.25
 31
0.0
  0
LINE
  5
339
330
336
100
AcDbEntity
  8
1
  6
Continuous
 62
     2
100
AcDbLine
 10
32.49999999999272
 20
114.9500000000044
 30
0.0
 11
32.49999999999272
 21
100.25
 31
0.0
  0
SOLID
  5
33A
330
336
100
AcDbEntity
  8
1
 62
     2
100
AcDbTrace
 10
35.49999999999272
 20
101.6449574927622
 30
0.0
 11
35.49999999999272
 21
100.8550425072378
 31
0.0
 12
32.49999999999272
 22
101.25
 32
0.0
 13
32.49999999999272
 23
101.25
 33
0.0
  0
SOLID
  5
33B
330
336
100
AcDbEntity
  8
1
 62
     2
100
AcDbTrace
 10
111.5
 20
100.8550425072378
 30
0.0
 11
111.5
 21
101.6449574927622
 31
0.0
 12
114.5
 22
101.25
 32
0.0
 13
114.5
 23
101.25
 33
0.0
  0
MTEXT
  5
33C
330
336
100
AcDbEntity
  8
1
 62
     4
100
AcDbMText
 10
71.09999999999272
 20
103.25
 30
0.0
 40
3.0
 41
0.0
 71
     7
 72
     1
  1
82
  7
CONVERTER_11
 11
0.9999999999970619
 21
2.424068405545306E-6
 31
0.0
 73
     1
 44
0.60024009603842
  0
ENDBLK
  5
33E
330
336
100
AcDbEntity
  8
0
100
AcDbBlockEnd
  0
BLOCK
  5
348
330
341
100
AcDbEntity
  8
0
100
AcDbBlockBegin
  2
*D18
 70
     1
 10
0.0
 20
0.0
 30
0.0
  3
*D18
  1

  0
LINE
  5
342
330
341
100
AcDbEntity
  8
1
  6
Continuous
 62
     2
100
AcDbLine
 10
13.99999999999273
 20
168.75
 30
0.0
 11
13.99999999999273
 21
116.25
 31
0.0
  0
LINE
  5
343
330
341
100
AcDbEntity
  8
1
  6
Continuous
 62
     2
100
AcDbLine
 10
45.24999999999273
 20
116.25
 30
0.0
 11
12.99999999999273
 21
116.25
 31
0.0
  0
LINE
  5
344
330
341
100
AcDbEntity
  8
1
  6
Continuous
 62
     2
100
AcDbLine
 10
45.24999999999273
 20
168.75
 30
0.0
 11
12.99999999999273
 21
168.75
 31
0.0
  0
SOLID
  5
345
330
341
100
AcDbEntity
  8
1
 62
     2
100
AcDbTrace
 10
14.39495749275491
 20
165.75
 30
0.0
 11
13.60504250723054
 21
165.75
 31
0.0
 12
13.99999999999273
 22
168.75
 32
0.0
 13
13.99999999999273
 23
168.75
 33
0.0
  0
SOLID
  5
346
330
341
100
AcDbEntity
  8
1
 62
     2
100
AcDbTrace
 10
13.60504250723054
 20
119.25
 30
0.0
 11
14.39495749275491
 21
119.25
 31
0.0
 12
13.99999999999273
 22
116.25
 32
0.0
 13
13.99999999999273
 23
116.25
 33
0.0
  0
MTEXT
  5
347
330
341
100
AcDbEntity
  8
1
 62
     4
100
AcDbMText
 10
11.69999999999127
 20
138.375
 30
0.0
 40
3.0
 41
0.0
 71
     7
 72
     1
  1
52,5
  7
CONVERTER_11
 11
0.0
 21
1.0
 31
0.0
 73
     1
 44
0.60024009603842
  0
ENDBLK
  5
349
330
341
100
AcDbEntity
  8
0
100
AcDbBlockEnd
  0
BLOCK
  5
353
330
34C
100
AcDbEntity
  8
0
100
AcDbBlockBegin
  2
*D19
 70
     1
 10
0.0
 20
0.0
 30
0.0
  3
*D19
  1

  0
LINE
  5
34D
330
34C
100
AcDbEntity
  8
1
  6
Continuous
 62
     2
100
AcDbLine
 10
138.0
 20
161.5
 30
0.0
 11
138.0
 21
123.5
 31
0.0
  0
LINE
  5
34E
330
34C
100
AcDbEntity
  8
1
  6
Continuous
 62
     2
100
AcDbLine
 10
123.0500000000029
 20
123.5
 30
0.0
 11
139.0
 21
123.5
 31
0.0
  0
LINE
  5
34F
330
34C
100
AcDbEntity
  8
1
  6
Continuous
 62
     2
100
AcDbLine
 10
123.0500000000029
 20
161.5
 30
0.0
 11
139.0
 21
161.5
 31
0.0
  0
SOLID
  5
350
330
34C
100
AcDbEntity
  8
1
 62
     2
100
AcDbTrace
 10
138.3949574927622
 20
158.5
 30
0.0
 11
137.6050425072378
 21
158.5
 31
0.0
 12
138.0
 22
161.5
 32
0.0
 13
138.0
 23
161.5
 33
0.0
  0
SOLID
  5
351
330
34C
100
AcDbEntity
  8
1
 62
     2
100
AcDbTrace
 10
137.6050425072378
 20
126.5
 30
0.0
 11
138.3949574927622
 21
126.5
 31
0.0
 12
138.0
 22
123.5
 32
0.0
 13
138.0
 23
123.5
 33
0.0
  0
MTEXT
  5
352
330
34C
100
AcDbEntity
  8
1
 62
     4
100
AcDbMText
 10
136.0
 20
140.25
 30
0.0
 40
3.0
 41
0.0
 71
     7
 72
     1
  1
38
  7
CONVERTER_11
 11
0.0
 21
1.0
 31
0.0
 73
     1
 44
0.60024009603842
  0
ENDBLK
  5
354
330
34C
100
AcDbEntity
  8
0
100
AcDbBlockEnd
  0
ENDSEC
  0
SECTION
  2
ENTITIES
  0
INSERT
  5
51
330
1F
100
AcDbEntity
  8
1
100
AcDbBlockReference
  2
Panel_cut_out_10p
 10
214.6651142915434
 20
46.84193286819209
 30
0.0
 41
0.5
 42
0.5
 43
0.5
  0
INSERT
  5
52
330
1F
100
AcDbEntity
  8
0
100
AcDbBlockReference
  2
A4_oriz
 10
297.0
 20
0.0
 30
0.0
  0
LINE
  5
139
330
1F
100
AcDbEntity
  8
1
  6
DOT_CENTER
 62
     2
100
AcDbLine
 10
177.1813673030119
 20
129.0
 30
0.0
 11
184.1813673030119
 21
129.0
 31
0.0
  0
LINE
  5
13A
330
1F
100
AcDbEntity
  8
1
  6
DOT_CENTER
 62
     2
100
AcDbLine
 10
177.1813673030119
 20
156.0
 30
0.0
 11
184.1813673030119
 21
156.0
 31
0.0
  0
LINE
  5
13B
330
1F
100
AcDbEntity
  8
1
  6
DOT_CENTER
 62
     2
100
AcDbLine
 10
102.0000000000073
 20
133.1449999999968
 30
0.0
 11
102.0000000000073
 21
124.8549999999959
 31
0.0
  0
LINE
  5
13C
330
1F
100
AcDbEntity
  8
1
  6
DOT_CENTER
 62
     2
100
AcDbLine
 10
106.1449999999968
 20
129.0
 30
0.0
 11
97.85499999999593
 21
129.0
 31
0.0
  0
LINE
  5
13D
330
1F
100
AcDbEntity
  8
1
  6
DOT_CENTER
 62
     2
100
AcDbLine
 10
45.0
 20
133.1449999999968
 30
0.0
 11
45.0
 21
124.8549999999959
 31
0.0
  0
LINE
  5
13E
330
1F
100
AcDbEntity
  8
1
  6
DOT_CENTER
 62
     2
100
AcDbLine
 10
49.1449999999968
 20
129.0
 30
0.0
 11
40.85499999999593
 21
129.0
 31
0.0
  0
LINE
  5
13F
330
1F
100
AcDbEntity
  8
1
  6
DOT_CENTER
 62
     2
100
AcDbLine
 10
102.0000000000073
 20
160.1449999999968
 30
0.0
 11
102.0000000000073
 21
151.8549999999959
 31
0.0
  0
LINE
  5
140
330
1F
100
AcDbEntity
  8
1
  6
DOT_CENTER
 62
     2
100
AcDbLine
 10
106.1449999999968
 20
156.0
 30
0.0
 11
97.85499999999593
 21
156.0
 31
0.0
  0
LINE
  5
141
330
1F
100
AcDbEntity
  8
1
  6
DOT_CENTER
 62
     2
100
AcDbLine
 10
45.0
 20
160.1449999999968
 30
0.0
 11
45.0
 21
151.8549999999959
 31
0.0
  0
LINE
  5
142
330
1F
100
AcDbEntity
  8
1
  6
DOT_CENTER
 62
     2
100
AcDbLine
 10
49.1449999999968
 20
156.0
 30
0.0
 11
40.85499999999593
 21
156.0
 31
0.0
  0
LINE
  5
143
330
1F
100
AcDbEntity
  8
1
  6
Continuous
 62
     2
100
AcDbLine
 10
41.84999999999855
 20
75.2315841993186
 30
0.0
 11
48.15000000000146
 21
75.23158419931133
 31
0.0
  0
LINE
  5
144
330
1F
100
AcDbEntity
  8
1
  6
Continuous
 62
     2
100
AcDbLine
 10
98.84999999999854
 20
75.2315841993186
 30
0.0
 11
105.1500000000015
 21
75.23158419931133
 31
0.0
  0
LINE
  5
145
330
1F
100
AcDbEntity
  8
1
  6
Continuous
 62
     2
100
AcDbLine
 10
179.3913673030111
 20
132.1500000000015
 30
0.0
 11
179.3913673030111
 21
126.0000000000073
 31
0.0
  0
LINE
  5
146
330
1F
100
AcDbEntity
  8
1
  6
Continuous
 62
     7
100
AcDbLine
 10
187.1813673030119
 20
126.9219536407691
 30
0.0
 11
187.1813673030119
 21
118.0
 31
0.0
  0
LINE
  5
147
330
1F
100
AcDbEntity
  8
1
  6
Continuous
 62
     7
100
AcDbLine
 10
187.1813673030119
 20
164.9219536407691
 30
0.0
 11
187.1813673030119
 21
156.0
 31
0.0
  0
LINE
  5
148
330
1F
100
AcDbEntity
  8
1
  6
Continuous
 62
     7
100
AcDbLine
 10
187.6813673030119
 20
126.9219536407691
 30
0.0
 11
187.6813673030119
 21
127.8058371172592
 31
0.0
  0
LINE
  5
149
330
1F
100
AcDbEntity
  8
1
  6
Continuous
 62
     7
100
AcDbLine
 10
186.1813673030119
 20
126.9219536407691
 30
0.0
 11
187.6813673030119
 21
126.9219536407691
 31
0.0
  0
LINE
  5
14A
330
1F
100
AcDbEntity
  8
1
  6
Continuous
 62
     7
100
AcDbLine
 10
186.1813673030119
 20
127.8058371172592
 30
0.0
 11
186.1813673030119
 21
126.9219536407691
 31
0.0
  0
LINE
  5
14B
330
1F
100
AcDbEntity
  8
1
  6
Continuous
 62
     7
100
AcDbLine
 10
187.6813673030119
 20
127.8058371172592
 30
0.0
 11
187.6813673030119
 21
128.5
 31
0.0
  0
LINE
  5
14C
330
1F
100
AcDbEntity
  8
1
  6
Continuous
 62
     7
100
AcDbLine
 10
187.6813673030119
 20
127.8058371172592
 30
0.0
 11
186.1813673030119
 21
127.8058371172592
 31
0.0
  0
LINE
  5
14D
330
1F
100
AcDbEntity
  8
1
  6
Continuous
 62
     7
100
AcDbLine
 10
187.6813673030119
 20
164.9219536407691
 30
0.0
 11
187.6813673030119
 21
165.8058371172592
 31
0.0
  0
LINE
  5
14E
330
1F
100
AcDbEntity
  8
1
  6
Continuous
 62
     7
100
AcDbLine
 10
186.1813673030119
 20
164.9219536407691
 30
0.0
 11
187.6813673030119
 21
164.9219536407691
 31
0.0
  0
LINE
  5
14F
330
1F
100
AcDbEntity
  8
1
  6
Continuous
 62
     7
100
AcDbLine
 10
186.1813673030119
 20
165.8058371172592
 30
0.0
 11
186.1813673030119
 21
164.9219536407691
 31
0.0
  0
LINE
  5
150
330
1F
100
AcDbEntity
  8
1
  6
Continuous
 62
     7
100
AcDbLine
 10
187.6813673030119
 20
165.8058371172592
 30
0.0
 11
187.6813673030119
 21
166.5
 31
0.0
  0
LINE
  5
151
330
1F
100
AcDbEntity
  8
1
  6
Continuous
 62
     7
100
AcDbLine
 10
187.6813673030119
 20
165.8058371172592
 30
0.0
 11
186.1813673030119
 21
165.8058371172592
 31
0.0
  0
LINE
  5
152
330
1F
100
AcDbEntity
  8
1
  6
Continuous
 62
     7
100
AcDbLine
 10
187.1813673030119
 20
129.0
 30
0.0
 11
187.1813673030119
 21
127.8058371172592
 31
0.0
  0
LINE
  5
153
330
1F
100
AcDbEntity
  8
1
  6
Continuous
 62
     7
100
AcDbLine
 10
187.1813673030119
 20
167.0
 30
0.0
 11
187.1813673030119
 21
165.8058371172592
 31
0.0
  0
LINE
  5
154
330
1F
100
AcDbEntity
  8
1
  6
Continuous
 62
     7
100
AcDbLine
 10
182.1813673030119
 20
132.1500000000015
 30
0.0
 11
182.1813673030119
 21
116.25
 31
0.0
  0
LINE
  5
155
330
1F
100
AcDbEntity
  8
1
  6
Continuous
 62
     7
100
AcDbLine
 10
179.1813673030119
 20
131.9399999999951
 30
0.0
 11
179.1813673030119
 21
126.0599999999977
 31
0.0
  0
LINE
  5
156
330
1F
100
AcDbEntity
  8
1
  6
Continuous
 62
     7
100
AcDbLine
 10
182.1813673030119
 20
132.1500000000015
 30
0.0
 11
179.3913673030111
 21
132.1500000000015
 31
0.0
  0
LINE
  5
157
330
1F
100
AcDbEntity
  8
1
  6
Continuous
 62
     7
100
AcDbLine
 10
182.1813673030119
 20
152.8499999999985
 30
0.0
 11
182.1813673030119
 21
145.0
 31
0.0
  0
LINE
  5
158
330
1F
100
AcDbEntity
  8
1
  6
Continuous
 62
     7
100
AcDbLine
 10
179.3913673030111
 20
152.8499999999985
 30
0.0
 11
182.1813673030119
 21
152.8499999999985
 31
0.0
  0
LINE
  5
159
330
1F
100
AcDbEntity
  8
1
  6
Continuous
 62
     7
100
AcDbLine
 10
179.1813673030119
 20
158.9399999999951
 30
0.0
 11
179.1813673030119
 21
153.0599999999977
 31
0.0
  0
LINE
  5
15A
330
1F
100
AcDbEntity
  8
1
  6
Continuous
 62
     7
100
AcDbLine
 10
182.1813673030119
 20
168.75
 30
0.0
 11
182.1813673030119
 21
152.8499999999985
 31
0.0
  0
LINE
  5
15B
330
1F
100
AcDbEntity
  8
1
  6
DOT_CENTER
 62
     2
100
AcDbLine
 10
170.9813673030003
 20
123.5
 30
0.0
 11
190.6813673030119
 21
123.5
 31
0.0
  0
LINE
  5
15C
330
1F
100
AcDbEntity
  8
1
  6
DOT_CENTER
 62
     2
100
AcDbLine
 10
170.9813673030003
 20
161.5
 30
0.0
 11
190.6813673030119
 21
161.5
 31
0.0
  0
LINE
  5
15D
330
1F
100
AcDbEntity
  8
1
  6
DOT_CENTER
 62
     2
100
AcDbLine
 10
178.3813673030163
 20
142.5
 30
0.0
 11
210.9813673030221
 21
142.5
 31
0.0
  0
LINE
  5
15E
330
1F
100
AcDbEntity
  8
1
  6
Continuous
 62
     7
100
AcDbLine
 10
181.8813673030163
 20
145.0
 30
0.0
 11
181.8813673030163
 21
148.5
 31
0.0
  0
LINE
  5
15F
330
1F
100
AcDbEntity
  8
1
  6
Continuous
 62
     7
100
AcDbLine
 10
181.3813673030163
 20
144.5
 30
0.0
 11
181.7813673029959
 21
145.0
 31
0.0
  0
LINE
  5
160
330
1F
100
AcDbEntity
  8
1
  6
Continuous
 62
     7
100
AcDbLine
 10
181.3813673030163
 20
144.5
 30
0.0
 11
181.3813673030163
 21
148.0
 31
0.0
  0
LINE
  5
161
330
1F
100
AcDbEntity
  8
1
  6
Continuous
 62
     7
100
AcDbLine
 10
181.3813673030163
 20
140.5
 30
0.0
 11
181.3813673030163
 21
144.5
 31
0.0
  0
LINE
  5
162
330
1F
100
AcDbEntity
  8
1
  6
Continuous
 62
     7
100
AcDbLine
 10
181.3813673030163
 20
140.5
 30
0.0
 11
181.3813673030163
 21
144.5
 31
0.0
  0
LINE
  5
163
330
1F
100
AcDbEntity
  8
1
  6
Continuous
 62
     7
100
AcDbLine
 10
181.7813673029959
 20
140.0
 30
0.0
 11
181.3813673030163
 21
140.5
 31
0.0
  0
LINE
  5
164
330
1F
100
AcDbEntity
  8
1
  6
Continuous
 62
     7
100
AcDbLine
 10
182.1813673030119
 20
140.0
 30
0.0
 11
182.1813673030119
 21
132.1500000000015
 31
0.0
  0
LINE
  5
165
330
1F
100
AcDbEntity
  8
1
  6
Continuous
 62
     7
100
AcDbLine
 10
181.7813673029959
 20
140.0
 30
0.0
 11
182.1813673030119
 21
140.0
 31
0.0
  0
LINE
  5
166
330
1F
100
AcDbEntity
  8
1
  6
Continuous
 62
     7
100
AcDbLine
 10
181.7813673029959
 20
145.0
 30
0.0
 11
181.7813673029959
 21
140.0
 31
0.0
  0
LINE
  5
167
330
1F
100
AcDbEntity
  8
1
  6
Continuous
 62
     7
100
AcDbLine
 10
182.1813673030119
 20
145.0
 30
0.0
 11
182.1813673030119
 21
140.0
 31
0.0
  0
LINE
  5
168
330
1F
100
AcDbEntity
  8
1
  6
Continuous
 62
     7
100
AcDbLine
 10
182.1813673030119
 20
145.0
 30
0.0
 11
181.7813673029959
 21
145.0
 31
0.0
  0
LINE
  5
169
330
1F
100
AcDbEntity
  8
1
  6
DOT_CENTER
 62
     4
100
AcDbLine
 10
123.0
 20
49.64158419930755
 30
0.0
 11
90.16757243540633
 21
49.64158419930755
 31
0.0
  0
LINE
  5
16A
330
1F
100
AcDbEntity
  8
1
  6
DOT_CENTER
 62
     4
100
AcDbLine
 10
123.0
 20
46.64158419930755
 30
0.0
 11
88.64655690330983
 21
46.64158419930755
 31
0.0
  0
LINE
  5
16B
330
1F
100
AcDbEntity
  8
1
  6
DOT_CENTER
 62
     4
100
AcDbLine
 10
123.0
 20
49.64158419930755
 30
0.0
 11
123.0
 21
46.64158419930755
 31
0.0
  0
LINE
  5
16C
330
1F
100
AcDbEntity
  8
1
  6
Continuous
 62
     7
100
AcDbLine
 10
111.0
 20
73.24158419929154
 30
0.0
 11
109.0
 21
73.24158419929154
 31
0.0
  0
LINE
  5
16D
330
1F
100
AcDbEntity
  8
1
  6
Continuous
 62
     7
100
AcDbLine
 10
118.0
 20
72.74158419929154
 30
0.0
 11
120.5
 21
72.74158419929154
 31
0.0
  0
LINE
  5
16E
330
1F
100
AcDbEntity
  8
1
  6
Continuous
 62
     7
100
AcDbLine
 10
111.0
 20
72.44158419931046
 30
0.0
 11
111.0
 21
73.64158419930754
 31
0.0
  0
LINE
  5
16F
330
1F
100
AcDbEntity
  8
1
  6
Continuous
 62
     7
100
AcDbLine
 10
29.0
 20
72.44158419931046
 30
0.0
 11
29.0
 21
73.64158419930754
 31
0.0
  0
LINE
  5
170
330
1F
100
AcDbEntity
  8
1
  6
Continuous
 62
     7
100
AcDbLine
 10
32.5
 20
72.44158419931046
 30
0.0
 11
30.15000000001601
 21
72.44158419931046
 31
0.0
  0
LINE
  5
171
330
1F
100
AcDbEntity
  8
1
  6
Continuous
 62
     7
100
AcDbLine
 10
30.15000000001601
 20
72.44158419931046
 30
0.0
 11
28.0
 21
72.44158419931046
 31
0.0
  0
LINE
  5
172
330
1F
100
AcDbEntity
  8
1
  6
Continuous
 62
     7
100
AcDbLine
 10
34.84999999999127
 20
72.44158419931046
 30
0.0
 11
32.5
 21
72.44158419931046
 31
0.0
  0
LINE
  5
173
330
1F
100
AcDbEntity
  8
1
  6
Continuous
 62
     7
100
AcDbLine
 10
41.84999999999855
 20
72.44158419931046
 30
0.0
 11
34.84999999999127
 21
72.44158419931046
 31
0.0
  0
LINE
  5
174
330
1F
100
AcDbEntity
  8
1
  6
Continuous
 62
     7
100
AcDbLine
 10
29.25
 20
66.94158419931046
 30
0.0
 11
29.25
 21
56.64158419930755
 31
0.0
  0
LINE
  5
175
330
1F
100
AcDbEntity
  8
1
  6
Continuous
 62
     7
100
AcDbLine
 10
29.07804635923094
 20
67.44158419931046
 30
0.0
 11
38.0
 21
67.44158419931046
 31
0.0
  0
LINE
  5
176
330
1F
100
AcDbEntity
  8
1
  6
Continuous
 62
     7
100
AcDbLine
 10
111.0780463592309
 20
67.44158419931046
 30
0.0
 11
120.0
 21
67.44158419931046
 31
0.0
  0
LINE
  5
177
330
1F
100
AcDbEntity
  8
1
  6
Continuous
 62
     7
100
AcDbLine
 10
111.0780463592309
 20
66.94158419931046
 30
0.0
 11
119.5
 21
66.94158419931046
 31
0.0
  0
LINE
  5
178
330
1F
100
AcDbEntity
  8
1
  6
Continuous
 62
     7
100
AcDbLine
 10
111.0780463592309
 20
68.44158419931046
 30
0.0
 11
111.0780463592309
 21
66.94158419931046
 31
0.0
  0
LINE
  5
179
330
1F
100
AcDbEntity
  8
1
  6
Continuous
 62
     7
100
AcDbLine
 10
110.1941628827408
 20
68.44158419931046
 30
0.0
 11
111.0780463592309
 21
68.44158419931046
 31
0.0
  0
LINE
  5
17A
330
1F
100
AcDbEntity
  8
1
  6
Continuous
 62
     7
100
AcDbLine
 10
110.1941628827408
 20
66.94158419931046
 30
0.0
 11
111.0780463592309
 21
66.94158419931046
 31
0.0
  0
LINE
  5
17B
330
1F
100
AcDbEntity
  8
1
  6
Continuous
 62
     7
100
AcDbLine
 10
110.1941628827408
 20
66.94158419931046
 30
0.0
 11
110.1941628827408
 21
68.44158419931046
 31
0.0
  0
LINE
  5
17C
330
1F
100
AcDbEntity
  8
1
  6
Continuous
 62
     7
100
AcDbLine
 10
29.07804635923094
 20
66.94158419931046
 30
0.0
 11
37.5
 21
66.94158419931046
 31
0.0
  0
LINE
  5
17D
330
1F
100
AcDbEntity
  8
1
  6
Continuous
 62
     7
100
AcDbLine
 10
29.07804635923094
 20
68.44158419931046
 30
0.0
 11
29.07804635923094
 21
66.94158419931046
 31
0.0
  0
LINE
  5
17E
330
1F
100
AcDbEntity
  8
1
  6
Continuous
 62
     7
100
AcDbLine
 10
28.19416288274078
 20
68.44158419931046
 30
0.0
 11
29.07804635923094
 21
68.44158419931046
 31
0.0
  0
LINE
  5
17F
330
1F
100
AcDbEntity
  8
1
  6
Continuous
 62
     7
100
AcDbLine
 10
28.19416288274078
 20
66.94158419931046
 30
0.0
 11
29.07804635923094
 21
66.94158419931046
 31
0.0
  0
LINE
  5
180
330
1F
100
AcDbEntity
  8
1
  6
Continuous
 62
     7
100
AcDbLine
 10
28.19416288274078
 20
66.94158419931046
 30
0.0
 11
28.19416288274078
 21
68.44158419931046
 31
0.0
  0
LINE
  5
181
330
1F
100
AcDbEntity
  8
1
  6
Continuous
 62
     7
100
AcDbLine
 10
103.5
 20
75.44158419931046
 30
0.0
 11
104.9400000000023
 21
75.44158419931046
 31
0.0
  0
LINE
  5
182
330
1F
100
AcDbEntity
  8
1
  6
Continuous
 62
     2
100
AcDbLine
 10
103.5
 20
75.44158419931046
 30
0.0
 11
103.5
 21
75.44159926263092
 31
0.0
  0
LINE
  5
183
330
1F
100
AcDbEntity
  8
1
  6
Continuous
 62
     7
100
AcDbLine
 10
100.5
 20
75.44158419931046
 30
0.0
 11
103.5
 21
75.44158419931046
 31
0.0
  0
LINE
  5
184
330
1F
100
AcDbEntity
  8
1
  6
Continuous
 62
     2
100
AcDbLine
 10
100.5
 20
75.44158419931046
 30
0.0
 11
100.5
 21
75.44171211792127
 31
0.0
  0
LINE
  5
185
330
1F
100
AcDbEntity
  8
1
  6
Continuous
 62
     7
100
AcDbLine
 10
46.5
 20
75.44158419931046
 30
0.0
 11
47.94000000000233
 21
75.44158419931046
 31
0.0
  0
LINE
  5
186
330
1F
100
AcDbEntity
  8
1
  6
Continuous
 62
     2
100
AcDbLine
 10
46.5
 20
75.44158419931046
 30
0.0
 11
46.5
 21
75.44196807072149
 31
0.0
  0
LINE
  5
187
330
1F
100
AcDbEntity
  8
1
  6
Continuous
 62
     7
100
AcDbLine
 10
43.5
 20
75.44158419931046
 30
0.0
 11
46.5
 21
75.44158419931046
 31
0.0
  0
LINE
  5
188
330
1F
100
AcDbEntity
  8
1
  6
Continuous
 62
     2
100
AcDbLine
 10
43.5
 20
75.44158419931046
 30
0.0
 11
43.5
 21
75.44175194451964
 31
0.0
  0
LINE
  5
189
330
1F
100
AcDbEntity
  8
1
  6
Continuous
 62
     7
100
AcDbLine
 10
105.1500000000015
 20
72.44158419931046
 30
0.0
 11
98.84999999999854
 21
72.44158419931046
 31
0.0
  0
LINE
  5
18A
330
1F
100
AcDbEntity
  8
1
  6
Continuous
 62
     7
100
AcDbLine
 10
105.1500000000015
 20
75.23158419931133
 30
0.0
 11
105.1500000000015
 21
72.44158419931046
 31
0.0
  0
LINE
  5
18B
330
1F
100
AcDbEntity
  8
1
  6
Continuous
 62
     7
100
AcDbLine
 10
99.05999999999767
 20
75.44158419931046
 30
0.0
 11
100.5
 21
75.44158419931046
 31
0.0
  0
LINE
  5
18C
330
1F
100
AcDbEntity
  8
1
  6
Continuous
 62
     7
100
AcDbLine
 10
98.84999999999854
 20
72.44158419931046
 30
0.0
 11
48.15000000000146
 21
72.44158419931046
 31
0.0
  0
LINE
  5
18D
330
1F
100
AcDbEntity
  8
1
  6
Continuous
 62
     7
100
AcDbLine
 10
98.84999999999854
 20
72.44158419931046
 30
0.0
 11
98.84999999999854
 21
75.2315841993186
 31
0.0
  0
LINE
  5
18E
330
1F
100
AcDbEntity
  8
1
  6
Continuous
 62
     7
100
AcDbLine
 10
48.15000000000146
 20
72.44158419931046
 30
0.0
 11
41.84999999999855
 21
72.44158419931046
 31
0.0
  0
LINE
  5
18F
330
1F
100
AcDbEntity
  8
1
  6
Continuous
 62
     7
100
AcDbLine
 10
48.15000000000146
 20
75.23158419931133
 30
0.0
 11
48.15000000000146
 21
72.44158419931046
 31
0.0
  0
LINE
  5
190
330
1F
100
AcDbEntity
  8
1
  6
Continuous
 62
     7
100
AcDbLine
 10
42.05999999999767
 20
75.44158419931046
 30
0.0
 11
43.5
 21
75.44158419931046
 31
0.0
  0
LINE
  5
191
330
1F
100
AcDbEntity
  8
1
  6
Continuous
 62
     7
100
AcDbLine
 10
41.84999999999855
 20
72.44158419931046
 30
0.0
 11
41.84999999999855
 21
75.2315841993186
 31
0.0
  0
LINE
  5
192
330
1F
100
AcDbEntity
  8
1
  6
Continuous
 62
     7
100
AcDbLine
 10
38.0
 20
67.44158419931046
 30
0.0
 11
38.0
 21
69.44158419931046
 31
0.0
  0
LINE
  5
193
330
1F
100
AcDbEntity
  8
1
  6
Continuous
 62
     7
100
AcDbLine
 10
27.0
 20
69.44158419931046
 30
0.0
 11
27.0
 21
67.44158419931046
 31
0.0
  0
LINE
  5
194
330
1F
100
AcDbEntity
  8
1
  6
Continuous
 62
     7
100
AcDbLine
 10
37.5
 20
66.94158419931046
 30
0.0
 11
38.0
 21
67.44158419931046
 31
0.0
  0
LINE
  5
195
330
1F
100
AcDbEntity
  8
1
  6
Continuous
 62
     7
100
AcDbLine
 10
27.5
 20
66.94158419931046
 30
0.0
 11
28.19416288274078
 21
66.94158419931046
 31
0.0
  0
LINE
  5
196
330
1F
100
AcDbEntity
  8
1
  6
Continuous
 62
     7
100
AcDbLine
 10
27.0
 20
67.44158419931046
 30
0.0
 11
27.5
 21
66.94158419931046
 31
0.0
  0
LINE
  5
197
330
1F
100
AcDbEntity
  8
1
  6
Continuous
 62
     7
100
AcDbLine
 10
27.0
 20
67.44158419931046
 30
0.0
 11
28.19416288274078
 21
67.44158419931046
 31
0.0
  0
LINE
  5
198
330
1F
100
AcDbEntity
  8
1
  6
Continuous
 62
     7
100
AcDbLine
 10
35.0
 20
73.64158419930754
 30
0.0
 11
36.0
 21
73.64158419930754
 31
0.0
  0
LINE
  5
199
330
1F
100
AcDbEntity
  8
1
  6
Continuous
 62
     7
100
AcDbLine
 10
29.0
 20
73.64158419930754
 30
0.0
 11
30.0
 21
73.64158419930754
 31
0.0
  0
LINE
  5
19A
330
1F
100
AcDbEntity
  8
1
  6
Continuous
 62
     7
100
AcDbLine
 10
30.0
 20
73.64158419930754
 30
0.0
 11
35.0
 21
73.64158419930754
 31
0.0
  0
LINE
  5
19B
330
1F
100
AcDbEntity
  8
1
  6
Continuous
 62
     7
100
AcDbLine
 10
36.0
 20
73.64158419930754
 30
0.0
 11
36.0
 21
72.44158419931046
 31
0.0
  0
LINE
  5
19C
330
1F
100
AcDbEntity
  8
1
  6
Continuous
 62
     7
100
AcDbLine
 10
35.0
 20
74.04158419930172
 30
0.0
 11
35.0
 21
73.64158419930754
 31
0.0
  0
LINE
  5
19D
330
1F
100
AcDbEntity
  8
1
  6
Continuous
 62
     7
100
AcDbLine
 10
30.0
 20
73.64158419930754
 30
0.0
 11
30.0
 21
74.04158419930172
 31
0.0
  0
LINE
  5
19E
330
1F
100
AcDbEntity
  8
1
  6
Continuous
 62
     7
100
AcDbLine
 10
30.0
 20
74.04158419930172
 30
0.0
 11
30.0
 21
74.34158419929736
 31
0.0
  0
LINE
  5
19F
330
1F
100
AcDbEntity
  8
1
  6
Continuous
 62
     7
100
AcDbLine
 10
35.0
 20
74.34158419929736
 30
0.0
 11
35.0
 21
74.04158419930172
 31
0.0
  0
LINE
  5
1A0
330
1F
100
AcDbEntity
  8
1
  6
Continuous
 62
     2
100
AcDbLine
 10
34.69999999998981
 20
74.34158419929736
 30
0.0
 11
35.0
 21
74.34158419929736
 31
0.0
  0
LINE
  5
1A1
330
1F
100
AcDbEntity
  8
1
  6
Continuous
 62
     2
100
AcDbLine
 10
30.0
 20
74.34158419929736
 30
0.0
 11
30.30000000001019
 21
74.34158419929736
 31
0.0
  0
LINE
  5
1A2
330
1F
100
AcDbEntity
  8
1
  6
Continuous
 62
     2
100
AcDbLine
 10
35.0
 20
74.04158419930172
 30
0.0
 11
34.69999999998981
 21
74.34158419929736
 31
0.0
  0
LINE
  5
1A3
330
1F
100
AcDbEntity
  8
1
  6
Continuous
 62
     2
100
AcDbLine
 10
30.0
 20
74.04158419930172
 30
0.0
 11
30.30000000001019
 21
74.34158419929736
 31
0.0
  0
LINE
  5
1A4
330
1F
100
AcDbEntity
  8
1
  6
Continuous
 62
     2
100
AcDbLine
 10
30.30000000001019
 20
74.34158419929736
 30
0.0
 11
34.69999999998981
 21
74.34158419929736
 31
0.0
  0
LINE
  5
1A5
330
1F
100
AcDbEntity
  8
1
  6
Continuous
 62
     7
100
AcDbLine
 10
35.0
 20
80.14158419930754
 30
0.0
 11
35.0
 21
74.34158419929736
 31
0.0
  0
LINE
  5
1A6
330
1F
100
AcDbEntity
  8
1
  6
Continuous
 62
     2
100
AcDbLine
 10
34.69999999998981
 20
74.34158419929736
 30
0.0
 11
34.69999999998981
 21
80.44158419931046
 31
0.0
  0
LINE
  5
1A7
330
1F
100
AcDbEntity
  8
1
  6
Continuous
 62
     2
100
AcDbLine
 10
30.30000000001019
 20
74.34158419929736
 30
0.0
 11
30.30000000001019
 21
80.44158419931046
 31
0.0
  0
LINE
  5
1A8
330
1F
100
AcDbEntity
  8
1
  6
Continuous
 62
     7
100
AcDbLine
 10
30.0
 20
74.34158419929736
 30
0.0
 11
30.0
 21
80.14158419930754
 31
0.0
  0
LINE
  5
1A9
330
1F
100
AcDbEntity
  8
1
  6
Continuous
 62
     7
100
AcDbLine
 10
34.5
 20
80.64158419930754
 30
0.0
 11
34.69999999998981
 21
80.44158419931046
 31
0.0
  0
LINE
  5
1AA
330
1F
100
AcDbEntity
  8
1
  6
Continuous
 62
     7
100
AcDbLine
 10
30.5
 20
80.64158419930754
 30
0.0
 11
34.5
 21
80.64158419930754
 31
0.0
  0
LINE
  5
1AB
330
1F
100
AcDbEntity
  8
1
  6
Continuous
 62
     7
100
AcDbLine
 10
30.0
 20
80.14158419930754
 30
0.0
 11
30.30000000001019
 21
80.44158419931046
 31
0.0
  0
LINE
  5
1AC
330
1F
100
AcDbEntity
  8
1
  6
Continuous
 62
     7
100
AcDbLine
 10
30.0
 20
80.14158419930754
 30
0.0
 11
35.0
 21
80.14158419930754
 31
0.0
  0
LINE
  5
1AD
330
1F
100
AcDbEntity
  8
1
  6
Continuous
 62
     7
100
AcDbLine
 10
30.30000000001019
 20
80.44158419931046
 30
0.0
 11
30.5
 21
80.64158419930754
 31
0.0
  0
LINE
  5
1AE
330
1F
100
AcDbEntity
  8
1
  6
Continuous
 62
     7
100
AcDbLine
 10
34.69999999998981
 20
80.44158419931046
 30
0.0
 11
35.0
 21
80.14158419930754
 31
0.0
  0
LINE
  5
1AF
330
1F
100
AcDbEntity
  8
1
  6
Continuous
 62
     7
100
AcDbLine
 10
116.6999999999898
 20
80.44158419931046
 30
0.0
 11
117.0
 21
80.14158419930754
 31
0.0
  0
LINE
  5
1B0
330
1F
100
AcDbEntity
  8
1
  6
Continuous
 62
     2
100
AcDbLine
 10
116.6999999999898
 20
74.34158419929736
 30
0.0
 11
116.6999999999898
 21
80.44158419931046
 31
0.0
  0
LINE
  5
1B1
330
1F
100
AcDbEntity
  8
1
  6
Continuous
 62
     7
100
AcDbLine
 10
112.3000000000102
 20
80.44158419931046
 30
0.0
 11
112.5
 21
80.64158419930754
 31
0.0
  0
LINE
  5
1B2
330
1F
100
AcDbEntity
  8
1
  6
Continuous
 62
     2
100
AcDbLine
 10
112.3000000000102
 20
74.34158419929736
 30
0.0
 11
112.3000000000102
 21
80.44158419931046
 31
0.0
  0
LINE
  5
1B3
330
1F
100
AcDbEntity
  8
1
  6
Continuous
 62
     2
100
AcDbLine
 10
112.3000000000102
 20
74.34158419929736
 30
0.0
 11
116.6999999999898
 21
74.34158419929736
 31
0.0
  0
LINE
  5
1B4
330
1F
100
AcDbEntity
  8
1
  6
Continuous
 62
     7
100
AcDbLine
 10
112.0
 20
74.04158419930172
 30
0.0
 11
112.0
 21
74.34158419929736
 31
0.0
  0
LINE
  5
1B5
330
1F
100
AcDbEntity
  8
1
  6
Continuous
 62
     2
100
AcDbLine
 10
112.0
 20
74.04158419930172
 30
0.0
 11
112.3000000000102
 21
74.34158419929736
 31
0.0
  0
LINE
  5
1B6
330
1F
100
AcDbEntity
  8
1
  6
Continuous
 62
     7
100
AcDbLine
 10
117.0
 20
74.04158419930172
 30
0.0
 11
117.0
 21
73.64158419930754
 31
0.0
  0
LINE
  5
1B7
330
1F
100
AcDbEntity
  8
1
  6
Continuous
 62
     2
100
AcDbLine
 10
116.6999999999898
 20
74.34158419929736
 30
0.0
 11
117.0
 21
74.34158419929736
 31
0.0
  0
LINE
  5
1B8
330
1F
100
AcDbEntity
  8
1
  6
Continuous
 62
     2
100
AcDbLine
 10
117.0
 20
74.04158419930172
 30
0.0
 11
116.6999999999898
 21
74.34158419929736
 31
0.0
  0
LINE
  5
1B9
330
1F
100
AcDbEntity
  8
1
  6
Continuous
 62
     7
100
AcDbLine
 10
112.0
 20
74.34158419929736
 30
0.0
 11
112.0
 21
80.14158419930754
 31
0.0
  0
LINE
  5
1BA
330
1F
100
AcDbEntity
  8
1
  6
Continuous
 62
     7
100
AcDbLine
 10
117.0
 20
74.34158419929736
 30
0.0
 11
117.0
 21
74.04158419930172
 31
0.0
  0
LINE
  5
1BB
330
1F
100
AcDbEntity
  8
1
  6
Continuous
 62
     2
100
AcDbLine
 10
112.0
 20
74.34158419929736
 30
0.0
 11
112.3000000000102
 21
74.34158419929736
 31
0.0
  0
LINE
  5
1BC
330
1F
100
AcDbEntity
  8
1
  6
DOT_CENTER
 62
     2
100
AcDbLine
 10
114.5
 20
83.64158419930754
 30
0.0
 11
114.5
 21
43.64158419930755
 31
0.0
  0
LINE
  5
1BD
330
1F
100
AcDbEntity
  8
1
  6
DOT_CENTER
 62
     2
100
AcDbLine
 10
102.0
 20
77.44158419931046
 30
0.0
 11
102.0
 21
67.44158419931046
 31
0.0
  0
LINE
  5
1BE
330
1F
100
AcDbEntity
  8
1
  6
DOT_CENTER
 62
     2
100
AcDbLine
 10
32.5
 20
83.64158419930754
 30
0.0
 11
32.5
 21
43.64158419930755
 31
0.0
  0
LINE
  5
1BF
330
1F
100
AcDbEntity
  8
1
  6
DOT_CENTER
 62
     2
100
AcDbLine
 10
45.0
 20
77.44158419931046
 30
0.0
 11
45.0
 21
67.44158419931046
 31
0.0
  0
LINE
  5
1C0
330
1F
100
AcDbEntity
  8
1
  6
Continuous
 62
     7
100
AcDbLine
 10
108.3000000000102
 20
72.44158419931046
 30
0.0
 11
105.1500000000015
 21
72.44158419931046
 31
0.0
  0
LINE
  5
1C1
330
1F
100
AcDbEntity
  8
1
  6
Continuous
 62
     7
100
AcDbLine
 10
34.84999999999127
 20
69.44158419931046
 30
0.0
 11
107.5
 21
69.44158419931046
 31
0.0
  0
LINE
  5
1C2
330
1F
100
AcDbEntity
  8
1
  6
Continuous
 62
     7
100
AcDbLine
 10
32.5
 20
69.44158419931046
 30
0.0
 11
34.84999999999127
 21
69.44158419931046
 31
0.0
  0
LINE
  5
1C3
330
1F
100
AcDbEntity
  8
1
  6
Continuous
 62
     7
100
AcDbLine
 10
114.5
 20
69.44158419931046
 30
0.0
 11
120.0
 21
69.44158419931046
 31
0.0
  0
LINE
  5
1C4
330
1F
100
AcDbEntity
  8
1
  6
Continuous
 62
     7
100
AcDbLine
 10
120.6999999999898
 20
72.44158419931046
 30
0.0
 11
120.5
 21
72.44158419931046
 31
0.0
  0
LINE
  5
1C5
330
1F
100
AcDbEntity
  8
1
  6
Continuous
 62
     7
100
AcDbLine
 10
114.5
 20
72.44158419931046
 30
0.0
 11
108.5
 21
72.44158419931046
 31
0.0
  0
LINE
  5
1C6
330
1F
100
AcDbEntity
  8
1
  6
Continuous
 62
     7
100
AcDbLine
 10
108.3000000000102
 20
69.44158419931046
 30
0.0
 11
109.0
 21
69.44158419931046
 31
0.0
  0
LINE
  5
1C7
330
1F
100
AcDbEntity
  8
1
  6
Continuous
 62
     7
100
AcDbLine
 10
30.15000000001601
 20
69.44158419931046
 30
0.0
 11
32.5
 21
69.44158419931046
 31
0.0
  0
LINE
  5
1C8
330
1F
100
AcDbEntity
  8
1
  6
Continuous
 62
     7
100
AcDbLine
 10
123.0
 20
72.44158419931046
 30
0.0
 11
120.6999999999898
 21
72.44158419931046
 31
0.0
  0
LINE
  5
1C9
330
1F
100
AcDbEntity
  8
1
  6
Continuous
 62
     7
100
AcDbLine
 10
28.0
 20
69.44158419931046
 30
0.0
 11
30.15000000001601
 21
69.44158419931046
 31
0.0
  0
LINE
  5
1CA
330
1F
100
AcDbEntity
  8
1
  6
Continuous
 62
     7
100
AcDbLine
 10
123.0
 20
69.44158419931046
 30
0.0
 11
123.0
 21
72.44158419931046
 31
0.0
  0
LINE
  5
1CB
330
1F
100
AcDbEntity
  8
1
  6
Continuous
 62
     7
100
AcDbLine
 10
24.0
 20
69.44158419931046
 30
0.0
 11
28.0
 21
69.44158419931046
 31
0.0
  0
LINE
  5
1CC
330
1F
100
AcDbEntity
  8
1
  6
Continuous
 62
     7
100
AcDbLine
 10
24.0
 20
72.44158419931046
 30
0.0
 11
24.0
 21
69.44158419931046
 31
0.0
  0
LINE
  5
1CD
330
1F
100
AcDbEntity
  8
1
  6
Continuous
 62
     7
100
AcDbLine
 10
28.0
 20
72.44158419931046
 30
0.0
 11
24.0
 21
72.44158419931046
 31
0.0
  0
LINE
  5
1CE
330
1F
100
AcDbEntity
  8
1
  6
Continuous
 62
     7
100
AcDbLine
 10
120.6999999999898
 20
69.44158419931046
 30
0.0
 11
121.5
 21
69.44158419931046
 31
0.0
  0
LINE
  5
1CF
330
1F
100
AcDbEntity
  8
1
  6
Continuous
 62
     7
100
AcDbLine
 10
28.5
 20
68.44158419931046
 30
0.0
 11
29.07804635923094
 21
68.44158419931046
 31
0.0
  0
LINE
  5
1D0
330
1F
100
AcDbEntity
  8
1
  6
Continuous
 62
     7
100
AcDbLine
 10
29.25
 20
56.64158419930755
 30
0.0
 11
35.75
 21
56.64158419930755
 31
0.0
  0
LINE
  5
1D1
330
1F
100
AcDbEntity
  8
1
  6
Continuous
 62
     7
100
AcDbLine
 10
35.75
 20
56.64158419930755
 30
0.0
 11
35.75
 21
66.94158419931046
 31
0.0
  0
LINE
  5
1D2
330
1F
100
AcDbEntity
  8
1
  6
Continuous
 62
     7
100
AcDbLine
 10
30.0
 20
46.64158419930755
 30
0.0
 11
35.0
 21
46.64158419930755
 31
0.0
  0
LINE
  5
1D3
330
1F
100
AcDbEntity
  8
1
  6
Continuous
 62
     7
100
AcDbLine
 10
35.0
 20
46.64158419930755
 30
0.0
 11
36.5
 21
49.64158419930755
 31
0.0
  0
LINE
  5
1D4
330
1F
100
AcDbEntity
  8
1
  6
Continuous
 62
     7
100
AcDbLine
 10
36.5
 20
49.64158419930755
 30
0.0
 11
28.5
 21
49.64158419930755
 31
0.0
  0
LINE
  5
1D5
330
1F
100
AcDbEntity
  8
1
  6
Continuous
 62
     7
100
AcDbLine
 10
28.5
 20
49.64158419930755
 30
0.0
 11
30.0
 21
46.64158419930755
 31
0.0
  0
LINE
  5
1D6
330
1F
100
AcDbEntity
  8
1
  6
Continuous
 62
     7
100
AcDbLine
 10
29.25
 20
56.64158419930755
 30
0.0
 11
28.5
 21
55.34254609364143
 31
0.0
  0
LINE
  5
1D7
330
1F
100
AcDbEntity
  8
1
  6
Continuous
 62
     7
100
AcDbLine
 10
35.75
 20
56.64158419930755
 30
0.0
 11
36.5
 21
55.34254609364143
 31
0.0
  0
LINE
  5
1D8
330
1F
100
AcDbEntity
  8
1
  6
Continuous
 62
     7
100
AcDbLine
 10
36.5
 20
55.34254609364143
 30
0.0
 11
28.5
 21
55.34254609364143
 31
0.0
  0
LINE
  5
1D9
330
1F
100
AcDbEntity
  8
1
  6
Continuous
 62
     7
100
AcDbLine
 10
28.5
 20
55.34254609364143
 30
0.0
 11
28.5
 21
49.64158419930755
 31
0.0
  0
LINE
  5
1DA
330
1F
100
AcDbEntity
  8
1
  6
Continuous
 62
     7
100
AcDbLine
 10
36.5
 20
55.34254609364143
 30
0.0
 11
36.5
 21
49.64158419930755
 31
0.0
  0
LINE
  5
1DB
330
1F
100
AcDbEntity
  8
1
  6
Continuous
 62
     7
100
AcDbLine
 10
107.5
 20
69.44158419931046
 30
0.0
 11
107.5
 21
50.34158419931191
 31
0.0
  0
LINE
  5
1DC
330
1F
100
AcDbEntity
  8
1
  6
Continuous
 62
     7
100
AcDbLine
 10
107.5
 20
69.44158419931046
 30
0.0
 11
108.3000000000102
 21
69.44158419931046
 31
0.0
  0
LINE
  5
1DD
330
1F
100
AcDbEntity
  8
1
  6
Continuous
 62
     7
100
AcDbLine
 10
107.5
 20
50.34158419931191
 30
0.0
 11
108.1999999999898
 21
49.64158419930755
 31
0.0
  0
LINE
  5
1DE
330
1F
100
AcDbEntity
  8
1
  6
Continuous
 62
     7
100
AcDbLine
 10
108.1999999999898
 20
49.64158419930755
 30
0.0
 11
120.8000000000102
 21
49.64158419930755
 31
0.0
  0
LINE
  5
1DF
330
1F
100
AcDbEntity
  8
1
  6
Continuous
 62
     7
100
AcDbLine
 10
120.8000000000102
 20
49.64158419930755
 30
0.0
 11
121.5
 21
50.34158419931191
 31
0.0
  0
LINE
  5
1E0
330
1F
100
AcDbEntity
  8
1
  6
Continuous
 62
     7
100
AcDbLine
 10
121.5
 20
50.34158419931191
 30
0.0
 11
121.5
 21
69.44158419931046
 31
0.0
  0
LINE
  5
1E1
330
1F
100
AcDbEntity
  8
1
  6
Continuous
 62
     7
100
AcDbLine
 10
121.5
 20
69.44158419931046
 30
0.0
 11
123.0
 21
69.44158419931046
 31
0.0
  0
LINE
  5
1E2
330
1F
100
AcDbEntity
  8
1
  6
Continuous
 62
     7
100
AcDbLine
 10
107.5
 20
50.34158419931191
 30
0.0
 11
121.5
 21
50.34158419931191
 31
0.0
  0
LINE
  5
1E3
330
1F
100
AcDbEntity
  8
1
  6
Continuous
 62
     7
100
AcDbLine
 10
108.5
 20
72.44158419931046
 30
0.0
 11
108.5
 21
72.74158419929154
 31
0.0
  0
LINE
  5
1E4
330
1F
100
AcDbEntity
  8
1
  6
Continuous
 62
     7
100
AcDbLine
 10
108.5
 20
72.44158419931046
 30
0.0
 11
108.3000000000102
 21
72.44158419931046
 31
0.0
  0
LINE
  5
1E5
330
1F
100
AcDbEntity
  8
1
  6
Continuous
 62
     7
100
AcDbLine
 10
108.5
 20
72.74158419929154
 30
0.0
 11
111.0
 21
72.74158419929154
 31
0.0
  0
LINE
  5
1E6
330
1F
100
AcDbEntity
  8
1
  6
Continuous
 62
     7
100
AcDbLine
 10
120.5
 20
72.74158419929154
 30
0.0
 11
120.5
 21
72.44158419931046
 31
0.0
  0
LINE
  5
1E7
330
1F
100
AcDbEntity
  8
1
  6
Continuous
 62
     7
100
AcDbLine
 10
120.5
 20
72.44158419931046
 30
0.0
 11
114.5
 21
72.44158419931046
 31
0.0
  0
LINE
  5
1E8
330
1F
100
AcDbEntity
  8
1
  6
Continuous
 62
     7
100
AcDbLine
 10
120.5
 20
72.74158419929154
 30
0.0
 11
120.0
 21
73.24158419929154
 31
0.0
  0
LINE
  5
1E9
330
1F
100
AcDbEntity
  8
1
  6
Continuous
 62
     7
100
AcDbLine
 10
120.0
 20
73.24158419929154
 30
0.0
 11
118.0
 21
73.24158419929154
 31
0.0
  0
LINE
  5
1EA
330
1F
100
AcDbEntity
  8
1
  6
Continuous
 62
     7
100
AcDbLine
 10
109.0
 20
73.24158419929154
 30
0.0
 11
108.5
 21
72.74158419929154
 31
0.0
  0
LINE
  5
1EB
330
1F
100
AcDbEntity
  8
1
  6
Continuous
 62
     7
100
AcDbLine
 10
109.0
 20
69.44158419931046
 30
0.0
 11
109.0
 21
67.44158419931046
 31
0.0
  0
LINE
  5
1EC
330
1F
100
AcDbEntity
  8
1
  6
Continuous
 62
     7
100
AcDbLine
 10
109.0
 20
69.44158419931046
 30
0.0
 11
114.5
 21
69.44158419931046
 31
0.0
  0
LINE
  5
1ED
330
1F
100
AcDbEntity
  8
1
  6
Continuous
 62
     7
100
AcDbLine
 10
109.0
 20
67.44158419931046
 30
0.0
 11
110.1941628827408
 21
67.44158419931046
 31
0.0
  0
LINE
  5
1EE
330
1F
100
AcDbEntity
  8
1
  6
Continuous
 62
     7
100
AcDbLine
 10
120.0
 20
67.44158419931046
 30
0.0
 11
120.0
 21
69.44158419931046
 31
0.0
  0
LINE
  5
1EF
330
1F
100
AcDbEntity
  8
1
  6
Continuous
 62
     7
100
AcDbLine
 10
120.0
 20
69.44158419931046
 30
0.0
 11
120.6999999999898
 21
69.44158419931046
 31
0.0
  0
LINE
  5
1F0
330
1F
100
AcDbEntity
  8
1
  6
Continuous
 62
     7
100
AcDbLine
 10
109.0
 20
67.44158419931046
 30
0.0
 11
109.5
 21
66.94158419931046
 31
0.0
  0
LINE
  5
1F1
330
1F
100
AcDbEntity
  8
1
  6
Continuous
 62
     7
100
AcDbLine
 10
109.5
 20
66.94158419931046
 30
0.0
 11
110.1941628827408
 21
66.94158419931046
 31
0.0
  0
LINE
  5
1F2
330
1F
100
AcDbEntity
  8
1
  6
Continuous
 62
     7
100
AcDbLine
 10
119.5
 20
66.94158419931046
 30
0.0
 11
120.0
 21
67.44158419931046
 31
0.0
  0
LINE
  5
1F3
330
1F
100
AcDbEntity
  8
1
  6
Continuous
 62
     7
100
AcDbLine
 10
118.0
 20
73.64158419930754
 30
0.0
 11
118.0
 21
72.44158419931046
 31
0.0
  0
LINE
  5
1F4
330
1F
100
AcDbEntity
  8
1
  6
Continuous
 62
     7
100
AcDbLine
 10
111.0
 20
73.64158419930754
 30
0.0
 11
112.0
 21
73.64158419930754
 31
0.0
  0
LINE
  5
1F5
330
1F
100
AcDbEntity
  8
1
  6
Continuous
 62
     7
100
AcDbLine
 10
112.0
 20
73.64158419930754
 30
0.0
 11
112.0
 21
74.04158419930172
 31
0.0
  0
LINE
  5
1F6
330
1F
100
AcDbEntity
  8
1
  6
Continuous
 62
     7
100
AcDbLine
 10
112.0
 20
73.64158419930754
 30
0.0
 11
117.0
 21
73.64158419930754
 31
0.0
  0
LINE
  5
1F7
330
1F
100
AcDbEntity
  8
1
  6
Continuous
 62
     7
100
AcDbLine
 10
112.0
 20
80.14158419930754
 30
0.0
 11
117.0
 21
80.14158419930754
 31
0.0
  0
LINE
  5
1F8
330
1F
100
AcDbEntity
  8
1
  6
Continuous
 62
     7
100
AcDbLine
 10
117.0
 20
80.14158419930754
 30
0.0
 11
117.0
 21
74.34158419929736
 31
0.0
  0
LINE
  5
1F9
330
1F
100
AcDbEntity
  8
1
  6
Continuous
 62
     7
100
AcDbLine
 10
117.0
 20
73.64158419930754
 30
0.0
 11
118.0
 21
73.64158419930754
 31
0.0
  0
LINE
  5
1FA
330
1F
100
AcDbEntity
  8
1
  6
Continuous
 62
     7
100
AcDbLine
 10
112.0
 20
80.14158419930754
 30
0.0
 11
112.3000000000102
 21
80.44158419931046
 31
0.0
  0
LINE
  5
1FB
330
1F
100
AcDbEntity
  8
1
  6
Continuous
 62
     7
100
AcDbLine
 10
112.5
 20
80.64158419930754
 30
0.0
 11
116.5
 21
80.64158419930754
 31
0.0
  0
LINE
  5
1FC
330
1F
100
AcDbEntity
  8
1
  6
Continuous
 62
     7
100
AcDbLine
 10
116.5
 20
80.64158419930754
 30
0.0
 11
116.6999999999898
 21
80.44158419931046
 31
0.0
  0
LINE
  5
1FD
330
1F
100
AcDbEntity
  8
1
  6
Continuous
 62
     7
100
AcDbLine
 10
182.1813673030119
 20
116.25
 30
0.0
 11
185.1813673030119
 21
116.25
 31
0.0
  0
LINE
  5
1FE
330
1F
100
AcDbEntity
  8
1
  6
Continuous
 62
     7
100
AcDbLine
 10
185.1813673030119
 20
116.25
 30
0.0
 11
185.1813673030119
 21
168.75
 31
0.0
  0
LINE
  5
1FF
330
1F
100
AcDbEntity
  8
1
  6
Continuous
 62
     7
100
AcDbLine
 10
185.1813673030119
 20
168.75
 30
0.0
 11
182.1813673030119
 21
168.75
 31
0.0
  0
LINE
  5
200
330
1F
100
AcDbEntity
  8
1
  6
Continuous
 62
     7
100
AcDbLine
 10
173.9813673030003
 20
163.5
 30
0.0
 11
174.1813673030119
 21
163.6999999999898
 31
0.0
  0
LINE
  5
201
330
1F
100
AcDbEntity
  8
1
  6
Continuous
 62
     7
100
AcDbLine
 10
173.9813673030003
 20
159.5
 30
0.0
 11
173.9813673030003
 21
163.5
 31
0.0
  0
LINE
  5
202
330
1F
100
AcDbEntity
  8
1
  6
Continuous
 62
     7
100
AcDbLine
 10
174.4813673030003
 20
159.0
 30
0.0
 11
174.1813673030119
 21
159.3000000000102
 31
0.0
  0
LINE
  5
203
330
1F
100
AcDbEntity
  8
1
  6
Continuous
 62
     7
100
AcDbLine
 10
174.4813673030003
 20
159.0
 30
0.0
 11
174.4813673030003
 21
164.0
 31
0.0
  0
LINE
  5
204
330
1F
100
AcDbEntity
  8
1
  6
Continuous
 62
     7
100
AcDbLine
 10
174.1813673030119
 20
159.3000000000102
 30
0.0
 11
173.9813673030003
 21
159.5
 31
0.0
  0
LINE
  5
205
330
1F
100
AcDbEntity
  8
1
  6
Continuous
 62
     7
100
AcDbLine
 10
174.1813673030119
 20
163.6999999999898
 30
0.0
 11
174.4813673030003
 21
164.0
 31
0.0
  0
LINE
  5
206
330
1F
100
AcDbEntity
  8
1
  6
Continuous
 62
     7
100
AcDbLine
 10
180.9813673030003
 20
159.0
 30
0.0
 11
180.9813673030003
 21
164.0
 31
0.0
  0
LINE
  5
207
330
1F
100
AcDbEntity
  8
1
  6
Continuous
 62
     7
100
AcDbLine
 10
180.9813673030003
 20
159.0
 30
0.0
 11
180.5813673030061
 21
159.0
 31
0.0
  0
LINE
  5
208
330
1F
100
AcDbEntity
  8
1
  6
Continuous
 62
     2
100
AcDbLine
 10
180.2813673030105
 20
159.0
 30
0.0
 11
180.2813673030105
 21
159.3000000000102
 31
0.0
  0
LINE
  5
209
330
1F
100
AcDbEntity
  8
1
  6
Continuous
 62
     7
100
AcDbLine
 10
180.2813673030105
 20
164.0
 30
0.0
 11
180.5813673030061
 21
164.0
 31
0.0
  0
LINE
  5
20A
330
1F
100
AcDbEntity
  8
1
  6
Continuous
 62
     2
100
AcDbLine
 10
180.5813673030061
 20
164.0
 30
0.0
 11
180.2813673030105
 21
163.6999999999898
 31
0.0
  0
LINE
  5
20B
330
1F
100
AcDbEntity
  8
1
  6
Continuous
 62
     2
100
AcDbLine
 10
180.2813673030105
 20
163.6999999999898
 30
0.0
 11
180.2813673030105
 21
164.0
 31
0.0
  0
LINE
  5
20C
330
1F
100
AcDbEntity
  8
1
  6
Continuous
 62
     7
100
AcDbLine
 10
180.5813673030061
 20
164.0
 30
0.0
 11
180.9813673030003
 21
164.0
 31
0.0
  0
LINE
  5
20D
330
1F
100
AcDbEntity
  8
1
  6
Continuous
 62
     2
100
AcDbLine
 10
180.5813673030061
 20
159.0
 30
0.0
 11
180.2813673030105
 21
159.3000000000102
 31
0.0
  0
LINE
  5
20E
330
1F
100
AcDbEntity
  8
1
  6
Continuous
 62
     7
100
AcDbLine
 10
180.5813673030061
 20
159.0
 30
0.0
 11
180.2813673030105
 21
159.0
 31
0.0
  0
LINE
  5
20F
330
1F
100
AcDbEntity
  8
1
  6
Continuous
 62
     2
100
AcDbLine
 10
180.2813673030105
 20
159.3000000000102
 30
0.0
 11
180.2813673030105
 21
163.6999999999898
 31
0.0
  0
LINE
  5
210
330
1F
100
AcDbEntity
  8
1
  6
Continuous
 62
     7
100
AcDbLine
 10
180.2813673030105
 20
159.0
 30
0.0
 11
174.4813673030003
 21
159.0
 31
0.0
  0
LINE
  5
211
330
1F
100
AcDbEntity
  8
1
  6
Continuous
 62
     2
100
AcDbLine
 10
180.2813673030105
 20
159.3000000000102
 30
0.0
 11
174.1813673030119
 21
159.3000000000102
 31
0.0
  0
LINE
  5
212
330
1F
100
AcDbEntity
  8
1
  6
Continuous
 62
     2
100
AcDbLine
 10
180.2813673030105
 20
163.6999999999898
 30
0.0
 11
174.1813673030119
 21
163.6999999999898
 31
0.0
  0
LINE
  5
213
330
1F
100
AcDbEntity
  8
1
  6
Continuous
 62
     7
100
AcDbLine
 10
174.4813673030003
 20
164.0
 30
0.0
 11
180.2813673030105
 21
164.0
 31
0.0
  0
LINE
  5
214
330
1F
100
AcDbEntity
  8
1
  6
Continuous
 62
     7
100
AcDbLine
 10
180.9813673030003
 20
158.0
 30
0.0
 11
180.9813673030003
 21
159.0
 31
0.0
  0
LINE
  5
215
330
1F
100
AcDbEntity
  8
1
  6
Continuous
 62
     7
100
AcDbLine
 10
180.9813673030003
 20
164.0
 30
0.0
 11
180.9813673030003
 21
165.0
 31
0.0
  0
LINE
  5
216
330
1F
100
AcDbEntity
  8
1
  6
Continuous
 62
     7
100
AcDbLine
 10
187.6813673030119
 20
166.5
 30
0.0
 11
187.1813673030119
 21
167.0
 31
0.0
  0
LINE
  5
217
330
1F
100
AcDbEntity
  8
1
  6
Continuous
 62
     7
100
AcDbLine
 10
187.1813673030119
 20
156.0
 30
0.0
 11
187.6813673030119
 21
156.5
 31
0.0
  0
LINE
  5
218
330
1F
100
AcDbEntity
  8
1
  6
Continuous
 62
     7
100
AcDbLine
 10
187.6813673030119
 20
156.5
 30
0.0
 11
187.6813673030119
 21
157.1941628827408
 31
0.0
  0
LINE
  5
219
330
1F
100
AcDbEntity
  8
1
  6
Continuous
 62
     7
100
AcDbLine
 10
185.1813673030119
 20
156.0
 30
0.0
 11
187.1813673030119
 21
156.0
 31
0.0
  0
LINE
  5
21A
330
1F
100
AcDbEntity
  8
1
  6
Continuous
 62
     7
100
AcDbLine
 10
187.1813673030119
 20
167.0
 30
0.0
 11
185.1813673030119
 21
167.0
 31
0.0
  0
LINE
  5
21B
330
1F
100
AcDbEntity
  8
1
  6
Continuous
 62
     7
100
AcDbLine
 10
180.9813673030003
 20
158.0
 30
0.0
 11
182.1813673030119
 21
158.0
 31
0.0
  0
LINE
  5
21C
330
1F
100
AcDbEntity
  8
1
  6
Continuous
 62
     7
100
AcDbLine
 10
180.9813673030003
 20
165.0
 30
0.0
 11
182.1813673030119
 21
165.0
 31
0.0
  0
LINE
  5
21D
330
1F
100
AcDbEntity
  8
1
  6
Continuous
 62
     7
100
AcDbLine
 10
185.1813673030119
 20
156.0
 30
0.0
 11
185.1813673030119
 21
167.0
 31
0.0
  0
LINE
  5
21E
330
1F
100
AcDbEntity
  8
1
  6
Continuous
 62
     7
100
AcDbLine
 10
199.2804054086664
 20
146.5
 30
0.0
 11
204.9813673030221
 21
146.5
 31
0.0
  0
LINE
  5
21F
330
1F
100
AcDbEntity
  8
1
  6
Continuous
 62
     7
100
AcDbLine
 10
199.2804054086664
 20
138.5
 30
0.0
 11
204.9813673030221
 21
138.5
 31
0.0
  0
LINE
  5
220
330
1F
100
AcDbEntity
  8
1
  6
Continuous
 62
     7
100
AcDbLine
 10
199.2804054086664
 20
146.5
 30
0.0
 11
199.2804054086664
 21
138.5
 31
0.0
  0
LINE
  5
221
330
1F
100
AcDbEntity
  8
1
  6
Continuous
 62
     7
100
AcDbLine
 10
197.9813673030221
 20
145.75
 30
0.0
 11
199.2804054086664
 21
146.5
 31
0.0
  0
LINE
  5
222
330
1F
100
AcDbEntity
  8
1
  6
Continuous
 62
     7
100
AcDbLine
 10
197.9813673030221
 20
139.25
 30
0.0
 11
199.2804054086664
 21
138.5
 31
0.0
  0
LINE
  5
223
330
1F
100
AcDbEntity
  8
1
  6
Continuous
 62
     7
100
AcDbLine
 10
204.9813673030221
 20
138.5
 30
0.0
 11
207.9813673030221
 21
140.0
 31
0.0
  0
LINE
  5
224
330
1F
100
AcDbEntity
  8
1
  6
Continuous
 62
     7
100
AcDbLine
 10
204.9813673030221
 20
146.5
 30
0.0
 11
204.9813673030221
 21
138.5
 31
0.0
  0
LINE
  5
225
330
1F
100
AcDbEntity
  8
1
  6
Continuous
 62
     7
100
AcDbLine
 10
207.9813673030221
 20
145.0
 30
0.0
 11
204.9813673030221
 21
146.5
 31
0.0
  0
LINE
  5
226
330
1F
100
AcDbEntity
  8
1
  6
Continuous
 62
     7
100
AcDbLine
 10
207.9813673030221
 20
140.0
 30
0.0
 11
207.9813673030221
 21
145.0
 31
0.0
  0
LINE
  5
227
330
1F
100
AcDbEntity
  8
1
  6
Continuous
 62
     7
100
AcDbLine
 10
197.9813673030221
 20
139.25
 30
0.0
 11
197.9813673030221
 21
145.75
 31
0.0
  0
LINE
  5
228
330
1F
100
AcDbEntity
  8
1
  6
Continuous
 62
     7
100
AcDbLine
 10
185.1813673030119
 20
138.5
 30
0.0
 11
186.1813673030119
 21
138.5
 31
0.0
  0
LINE
  5
229
330
1F
100
AcDbEntity
  8
1
  6
Continuous
 62
     7
100
AcDbLine
 10
186.1813673030119
 20
138.5
 30
0.0
 11
186.1813673030119
 21
146.5
 31
0.0
  0
LINE
  5
22A
330
1F
100
AcDbEntity
  8
1
  6
Continuous
 62
     7
100
AcDbLine
 10
186.1813673030119
 20
146.5
 30
0.0
 11
185.1813673030119
 21
146.5
 31
0.0
  0
LINE
  5
22B
330
1F
100
AcDbEntity
  8
1
  6
Continuous
 62
     7
100
AcDbLine
 10
185.1813673030119
 20
138.5
 30
0.0
 11
185.1813673030119
 21
146.5
 31
0.0
  0
LINE
  5
22C
330
1F
100
AcDbEntity
  8
1
  6
Continuous
 62
     7
100
AcDbLine
 10
186.1813673030119
 20
138.5
 30
0.0
 11
186.9313673030119
 21
139.25
 31
0.0
  0
LINE
  5
22D
330
1F
100
AcDbEntity
  8
1
  6
Continuous
 62
     7
100
AcDbLine
 10
186.9313673030119
 20
139.25
 30
0.0
 11
186.9313673030119
 21
145.75
 31
0.0
  0
LINE
  5
22E
330
1F
100
AcDbEntity
  8
1
  6
Continuous
 62
     7
100
AcDbLine
 10
186.9313673030119
 20
145.75
 30
0.0
 11
186.1813673030119
 21
146.5
 31
0.0
  0
LINE
  5
22F
330
1F
100
AcDbEntity
  8
1
  6
Continuous
 62
     7
100
AcDbLine
 10
186.9313673030119
 20
139.25
 30
0.0
 11
197.9813673030221
 21
139.25
 31
0.0
  0
LINE
  5
230
330
1F
100
AcDbEntity
  8
1
  6
Continuous
 62
     7
100
AcDbLine
 10
186.9313673030119
 20
145.75
 30
0.0
 11
197.9813673030221
 21
145.75
 31
0.0
  0
LINE
  5
231
330
1F
100
AcDbEntity
  8
1
  6
Continuous
 62
     7
100
AcDbLine
 10
185.1813673030119
 20
135.5
 30
0.0
 11
204.2813673029959
 21
135.5
 31
0.0
  0
LINE
  5
232
330
1F
100
AcDbEntity
  8
1
  6
Continuous
 62
     7
100
AcDbLine
 10
204.2813673029959
 20
135.5
 30
0.0
 11
204.2813673029959
 21
138.5
 31
0.0
  0
LINE
  5
233
330
1F
100
AcDbEntity
  8
1
  6
Continuous
 62
     7
100
AcDbLine
 10
204.9813673030221
 20
148.8000000000102
 30
0.0
 11
204.2813673029959
 21
149.5
 31
0.0
  0
LINE
  5
234
330
1F
100
AcDbEntity
  8
1
  6
Continuous
 62
     7
100
AcDbLine
 10
204.9813673030221
 20
136.1999999999898
 30
0.0
 11
204.9813673030221
 21
148.8000000000102
 31
0.0
  0
LINE
  5
235
330
1F
100
AcDbEntity
  8
1
  6
Continuous
 62
     7
100
AcDbLine
 10
204.2813673029959
 20
135.5
 30
0.0
 11
204.9813673030221
 21
136.1999999999898
 31
0.0
  0
LINE
  5
236
330
1F
100
AcDbEntity
  8
1
  6
Continuous
 62
     7
100
AcDbLine
 10
204.2813673029959
 20
149.5
 30
0.0
 11
185.1813673030119
 21
149.5
 31
0.0
  0
LINE
  5
237
330
1F
100
AcDbEntity
  8
1
  6
Continuous
 62
     7
100
AcDbLine
 10
181.3813673030163
 20
137.0
 30
0.0
 11
181.8813673030163
 21
136.5
 31
0.0
  0
LINE
  5
238
330
1F
100
AcDbEntity
  8
1
  6
Continuous
 62
     7
100
AcDbLine
 10
181.8813673030163
 20
148.5
 30
0.0
 11
181.3813673030163
 21
148.0
 31
0.0
  0
LINE
  5
239
330
1F
100
AcDbEntity
  8
1
  6
Continuous
 62
     7
100
AcDbLine
 10
181.3813673030163
 20
137.0
 30
0.0
 11
181.3813673030163
 21
140.5
 31
0.0
  0
LINE
  5
23A
330
1F
100
AcDbEntity
  8
1
  6
Continuous
 62
     7
100
AcDbLine
 10
181.8813673030163
 20
136.5
 30
0.0
 11
181.8813673030163
 21
140.0
 31
0.0
  0
LINE
  5
23B
330
1F
100
AcDbEntity
  8
1
  6
Continuous
 62
     7
100
AcDbLine
 10
181.8813673030163
 20
136.5
 30
0.0
 11
182.1813673030119
 21
136.5
 31
0.0
  0
LINE
  5
23C
330
1F
100
AcDbEntity
  8
1
  6
Continuous
 62
     7
100
AcDbLine
 10
181.8813673030163
 20
148.5
 30
0.0
 11
182.1813673030119
 21
148.5
 31
0.0
  0
LINE
  5
23D
330
1F
100
AcDbEntity
  8
1
  6
Continuous
 62
     7
100
AcDbLine
 10
185.1813673030119
 20
135.5
 30
0.0
 11
185.1813673030119
 21
149.5
 31
0.0
  0
LINE
  5
23E
330
1F
100
AcDbEntity
  8
1
  6
Continuous
 62
     7
100
AcDbLine
 10
204.2813673029959
 20
146.5
 30
0.0
 11
204.2813673029959
 21
149.5
 31
0.0
  0
LINE
  5
23F
330
1F
100
AcDbEntity
  8
1
  6
Continuous
 62
     7
100
AcDbLine
 10
180.9813673030003
 20
127.0
 30
0.0
 11
182.1813673030119
 21
127.0
 31
0.0
  0
LINE
  5
240
330
1F
100
AcDbEntity
  8
1
  6
Continuous
 62
     7
100
AcDbLine
 10
180.9813673030003
 20
120.0
 30
0.0
 11
182.1813673030119
 21
120.0
 31
0.0
  0
LINE
  5
241
330
1F
100
AcDbEntity
  8
1
  6
Continuous
 62
     7
100
AcDbLine
 10
185.1813673030119
 20
118.0
 30
0.0
 11
185.1813673030119
 21
129.0
 31
0.0
  0
LINE
  5
242
330
1F
100
AcDbEntity
  8
1
  6
Continuous
 62
     7
100
AcDbLine
 10
187.1813673030119
 20
129.0
 30
0.0
 11
185.1813673030119
 21
129.0
 31
0.0
  0
LINE
  5
243
330
1F
100
AcDbEntity
  8
1
  6
Continuous
 62
     7
100
AcDbLine
 10
185.1813673030119
 20
118.0
 30
0.0
 11
187.1813673030119
 21
118.0
 31
0.0
  0
LINE
  5
244
330
1F
100
AcDbEntity
  8
1
  6
Continuous
 62
     7
100
AcDbLine
 10
187.6813673030119
 20
118.5
 30
0.0
 11
187.6813673030119
 21
119.1941628827408
 31
0.0
  0
LINE
  5
245
330
1F
100
AcDbEntity
  8
1
  6
Continuous
 62
     7
100
AcDbLine
 10
187.1813673030119
 20
118.0
 30
0.0
 11
187.6813673030119
 21
118.5
 31
0.0
  0
LINE
  5
246
330
1F
100
AcDbEntity
  8
1
  6
Continuous
 62
     7
100
AcDbLine
 10
187.6813673030119
 20
128.5
 30
0.0
 11
187.1813673030119
 21
129.0
 31
0.0
  0
LINE
  5
247
330
1F
100
AcDbEntity
  8
1
  6
Continuous
 62
     7
100
AcDbLine
 10
180.9813673030003
 20
126.0
 30
0.0
 11
180.9813673030003
 21
127.0
 31
0.0
  0
LINE
  5
248
330
1F
100
AcDbEntity
  8
1
  6
Continuous
 62
     7
100
AcDbLine
 10
180.9813673030003
 20
120.0
 30
0.0
 11
180.9813673030003
 21
121.0
 31
0.0
  0
LINE
  5
249
330
1F
100
AcDbEntity
  8
1
  6
Continuous
 62
     7
100
AcDbLine
 10
174.4813673030003
 20
126.0
 30
0.0
 11
180.2813673030105
 21
126.0
 31
0.0
  0
LINE
  5
24A
330
1F
100
AcDbEntity
  8
1
  6
Continuous
 62
     2
100
AcDbLine
 10
180.2813673030105
 20
125.6999999999898
 30
0.0
 11
174.1813673030119
 21
125.6999999999898
 31
0.0
  0
LINE
  5
24B
330
1F
100
AcDbEntity
  8
1
  6
Continuous
 62
     2
100
AcDbLine
 10
180.2813673030105
 20
121.3000000000102
 30
0.0
 11
174.1813673030119
 21
121.3000000000102
 31
0.0
  0
LINE
  5
24C
330
1F
100
AcDbEntity
  8
1
  6
Continuous
 62
     7
100
AcDbLine
 10
180.2813673030105
 20
121.0
 30
0.0
 11
174.4813673030003
 21
121.0
 31
0.0
  0
LINE
  5
24D
330
1F
100
AcDbEntity
  8
1
  6
Continuous
 62
     2
100
AcDbLine
 10
180.2813673030105
 20
121.3000000000102
 30
0.0
 11
180.2813673030105
 21
125.6999999999898
 31
0.0
  0
LINE
  5
24E
330
1F
100
AcDbEntity
  8
1
  6
Continuous
 62
     7
100
AcDbLine
 10
180.5813673030061
 20
121.0
 30
0.0
 11
180.2813673030105
 21
121.0
 31
0.0
  0
LINE
  5
24F
330
1F
100
AcDbEntity
  8
1
  6
Continuous
 62
     2
100
AcDbLine
 10
180.5813673030061
 20
121.0
 30
0.0
 11
180.2813673030105
 21
121.3000000000102
 31
0.0
  0
LINE
  5
250
330
1F
100
AcDbEntity
  8
1
  6
Continuous
 62
     7
100
AcDbLine
 10
180.5813673030061
 20
126.0
 30
0.0
 11
180.9813673030003
 21
126.0
 31
0.0
  0
LINE
  5
251
330
1F
100
AcDbEntity
  8
1
  6
Continuous
 62
     2
100
AcDbLine
 10
180.2813673030105
 20
125.6999999999898
 30
0.0
 11
180.2813673030105
 21
126.0
 31
0.0
  0
LINE
  5
252
330
1F
100
AcDbEntity
  8
1
  6
Continuous
 62
     2
100
AcDbLine
 10
180.5813673030061
 20
126.0
 30
0.0
 11
180.2813673030105
 21
125.6999999999898
 31
0.0
  0
LINE
  5
253
330
1F
100
AcDbEntity
  8
1
  6
Continuous
 62
     7
100
AcDbLine
 10
180.2813673030105
 20
126.0
 30
0.0
 11
180.5813673030061
 21
126.0
 31
0.0
  0
LINE
  5
254
330
1F
100
AcDbEntity
  8
1
  6
Continuous
 62
     2
100
AcDbLine
 10
180.2813673030105
 20
121.0
 30
0.0
 11
180.2813673030105
 21
121.3000000000102
 31
0.0
  0
LINE
  5
255
330
1F
100
AcDbEntity
  8
1
  6
Continuous
 62
     7
100
AcDbLine
 10
180.9813673030003
 20
121.0
 30
0.0
 11
180.5813673030061
 21
121.0
 31
0.0
  0
LINE
  5
256
330
1F
100
AcDbEntity
  8
1
  6
Continuous
 62
     7
100
AcDbLine
 10
180.9813673030003
 20
121.0
 30
0.0
 11
180.9813673030003
 21
126.0
 31
0.0
  0
LINE
  5
257
330
1F
100
AcDbEntity
  8
1
  6
Continuous
 62
     7
100
AcDbLine
 10
174.1813673030119
 20
125.6999999999898
 30
0.0
 11
174.4813673030003
 21
126.0
 31
0.0
  0
LINE
  5
258
330
1F
100
AcDbEntity
  8
1
  6
Continuous
 62
     7
100
AcDbLine
 10
174.1813673030119
 20
121.3000000000102
 30
0.0
 11
173.9813673030003
 21
121.5
 31
0.0
  0
LINE
  5
259
330
1F
100
AcDbEntity
  8
1
  6
Continuous
 62
     7
100
AcDbLine
 10
174.4813673030003
 20
121.0
 30
0.0
 11
174.4813673030003
 21
126.0
 31
0.0
  0
LINE
  5
25A
330
1F
100
AcDbEntity
  8
1
  6
Continuous
 62
     7
100
AcDbLine
 10
174.4813673030003
 20
121.0
 30
0.0
 11
174.1813673030119
 21
121.3000000000102
 31
0.0
  0
LINE
  5
25B
330
1F
100
AcDbEntity
  8
1
  6
Continuous
 62
     7
100
AcDbLine
 10
173.9813673030003
 20
121.5
 30
0.0
 11
173.9813673030003
 21
125.5
 31
0.0
  0
LINE
  5
25C
330
1F
100
AcDbEntity
  8
1
  6
Continuous
 62
     7
100
AcDbLine
 10
173.9813673030003
 20
125.5
 30
0.0
 11
174.1813673030119
 21
125.6999999999898
 31
0.0
  0
LINE
  5
25D
330
1F
100
AcDbEntity
  8
1
  6
Continuous
 62
     7
100
AcDbLine
 10
187.6813673030119
 20
158.0780463592309
 30
0.0
 11
187.6813673030119
 21
164.9219536407691
 31
0.0
  0
LINE
  5
25E
330
1F
100
AcDbEntity
  8
1
  6
Continuous
 62
     7
100
AcDbLine
 10
187.6813673030119
 20
157.1941628827408
 30
0.0
 11
187.6813673030119
 21
158.0780463592309
 31
0.0
  0
LINE
  5
25F
330
1F
100
AcDbEntity
  8
1
  6
Continuous
 62
     7
100
AcDbLine
 10
187.6813673030119
 20
120.0780463592309
 30
0.0
 11
187.6813673030119
 21
126.9219536407691
 31
0.0
  0
LINE
  5
260
330
1F
100
AcDbEntity
  8
1
  6
Continuous
 62
     7
100
AcDbLine
 10
187.6813673030119
 20
119.1941628827408
 30
0.0
 11
187.6813673030119
 21
120.0780463592309
 31
0.0
  0
LINE
  5
261
330
1F
100
AcDbEntity
  8
1
  6
Continuous
 62
     2
100
AcDbLine
 10
179.3913673030111
 20
159.0
 30
0.0
 11
179.3913673030111
 21
152.8499999999985
 31
0.0
  0
LINE
  5
262
330
1F
100
AcDbEntity
  8
0
  6
Continuous
 62
     7
100
AcDbLine
 10
118.020815280157
 20
116.25
 30
0.0
 11
111.4969516727797
 21
116.25
 31
0.0
  0
LINE
  5
263
330
1F
100
AcDbEntity
  8
0
  6
Continuous
 62
     7
100
AcDbLine
 10
120.5104076400894
 20
118.7395923599179
 30
0.0
 11
118.020815280157
 21
116.25
 31
0.0
  0
LINE
  5
264
330
1F
100
AcDbEntity
  8
0
  6
Continuous
 62
     7
100
AcDbLine
 10
123.0
 20
160.25
 30
0.0
 11
123.0
 21
124.75
 31
0.0
  0
LINE
  5
265
330
1F
100
AcDbEntity
  8
0
  6
Continuous
 62
     7
100
AcDbLine
 10
118.020815280157
 20
168.75
 30
0.0
 11
120.5104076400894
 21
166.2604076400894
 31
0.0
  0
LINE
  5
266
330
1F
100
AcDbEntity
  8
0
  6
Continuous
 62
     7
100
AcDbLine
 10
111.4969516727797
 20
168.75
 30
0.0
 11
118.020815280157
 21
168.75
 31
0.0
  0
LINE
  5
267
330
1F
100
AcDbEntity
  8
0
  6
Continuous
 62
     7
100
AcDbLine
 10
111.4969516727797
 20
168.75
 30
0.0
 11
109.3734758363789
 21
166.6265241636065
 31
0.0
  0
LINE
  5
268
330
1F
100
AcDbEntity
  8
0
  6
Continuous
 62
     7
100
AcDbLine
 10
109.3734758363789
 20
118.3734758363862
 30
0.0
 11
111.4969516727797
 21
116.25
 31
0.0
  0
LINE
  5
269
330
1F
100
AcDbEntity
  8
0
  6
Continuous
 62
     7
100
AcDbLine
 10
100.5
 20
132.25
 30
0.0
 11
105.5
 21
132.25
 31
0.0
  0
LINE
  5
26A
330
1F
100
AcDbEntity
  8
0
  6
Continuous
 62
     7
100
AcDbLine
 10
106.0
 20
132.75
 30
0.0
 11
106.0
 21
152.25
 31
0.0
  0
LINE
  5
26B
330
1F
100
AcDbEntity
  8
0
  6
Continuous
 62
     7
100
AcDbLine
 10
107.864133066767
 20
165.0
 30
0.0
 11
103.75
 21
165.0
 31
0.0
  0
LINE
  5
26C
330
1F
100
AcDbEntity
  8
0
  6
Continuous
 62
     7
100
AcDbLine
 10
103.75
 20
120.0
 30
0.0
 11
107.864133066767
 21
120.0
 31
0.0
  0
LINE
  5
26D
330
1F
100
AcDbEntity
  8
0
  6
Continuous
 62
     7
100
AcDbLine
 10
35.50304832722031
 20
116.25
 30
0.0
 11
37.62652416360652
 21
118.3734758363862
 31
0.0
  0
LINE
  5
26E
330
1F
100
AcDbEntity
  8
0
  6
Continuous
 62
     7
100
AcDbLine
 10
35.50304832722031
 20
116.25
 30
0.0
 11
28.97918471982121
 21
116.25
 31
0.0
  0
LINE
  5
26F
330
1F
100
AcDbEntity
  8
0
  6
Continuous
 62
     7
100
AcDbLine
 10
43.74999999999272
 20
118.25
 30
0.0
 11
43.74999999999272
 21
119.5
 31
0.0
  0
LINE
  5
270
330
1F
100
AcDbEntity
  8
0
  6
Continuous
 62
     7
100
AcDbLine
 10
41.49999999999272
 20
132.25
 30
0.0
 11
46.49999999999272
 21
132.25
 31
0.0
  0
LINE
  5
271
330
1F
100
AcDbEntity
  8
0
  6
Continuous
 62
     7
100
AcDbLine
 10
46.49999999999272
 20
152.75
 30
0.0
 11
41.49999999999272
 21
152.75
 31
0.0
  0
LINE
  5
272
330
1F
100
AcDbEntity
  8
0
  6
Continuous
 62
     7
100
AcDbLine
 10
40.99999999999272
 20
152.25
 30
0.0
 11
40.99999999999272
 21
132.75
 31
0.0
  0
LINE
  5
273
330
1F
100
AcDbEntity
  8
0
  6
Continuous
 62
     7
100
AcDbLine
 10
39.13586693319667
 20
120.0
 30
0.0
 11
43.24999999999272
 21
120.0
 31
0.0
  0
LINE
  5
274
330
1F
100
AcDbEntity
  8
0
  6
Continuous
 62
     7
100
AcDbLine
 10
48.99999999999272
 20
123.5
 30
0.0
 11
98.0
 21
123.5
 31
0.0
  0
LINE
  5
275
330
1F
100
AcDbEntity
  8
0
  6
Continuous
 62
     7
100
AcDbLine
 10
28.97918471982121
 20
116.25
 30
0.0
 11
26.48959235989605
 21
118.7395923599179
 31
0.0
  0
LINE
  5
276
330
1F
100
AcDbEntity
  8
0
  6
Continuous
 62
     7
100
AcDbLine
 10
98.5
 20
124.0
 30
0.0
 11
98.5
 21
130.25
 31
0.0
  0
LINE
  5
277
330
1F
100
AcDbEntity
  8
0
  6
Continuous
 62
     7
100
AcDbLine
 10
48.49999999999272
 20
130.25
 30
0.0
 11
48.49999999999272
 21
124.0
 31
0.0
  0
LINE
  5
278
330
1F
100
AcDbEntity
  8
0
  6
Continuous
 62
     7
100
AcDbLine
 10
23.99999999999272
 20
124.75
 30
0.0
 11
23.99999999999272
 21
160.25
 31
0.0
  0
LINE
  5
279
330
1F
100
AcDbEntity
  8
0
  6
Continuous
 62
     7
100
AcDbLine
 10
101.25
 20
116.25
 30
0.0
 11
45.74999999999272
 21
116.25
 31
0.0
  0
LINE
  5
27A
330
1F
100
AcDbEntity
  8
0
  6
Continuous
 62
     7
100
AcDbLine
 10
26.4895923599106
 20
166.2604076400749
 30
0.0
 11
28.97918471982121
 21
168.75
 31
0.0
  0
LINE
  5
27B
330
1F
100
AcDbEntity
  8
0
  6
Continuous
 62
     7
100
AcDbLine
 10
28.97918471982121
 20
168.75
 30
0.0
 11
35.50304832722031
 21
168.75
 31
0.0
  0
LINE
  5
27C
330
1F
100
AcDbEntity
  8
0
  6
Continuous
 62
     7
100
AcDbLine
 10
37.62652416360652
 20
166.6265241636065
 30
0.0
 11
35.50304832722031
 21
168.75
 31
0.0
  0
LINE
  5
27D
330
1F
100
AcDbEntity
  8
0
  6
Continuous
 62
     7
100
AcDbLine
 10
43.24999999999272
 20
165.0
 30
0.0
 11
39.13586693319667
 21
165.0
 31
0.0
  0
LINE
  5
27E
330
1F
100
AcDbEntity
  8
0
  6
Continuous
 62
     7
100
AcDbLine
 10
98.0
 20
161.5
 30
0.0
 11
48.99999999999272
 21
161.5
 31
0.0
  0
LINE
  5
27F
330
1F
100
AcDbEntity
  8
0
  6
Continuous
 62
     7
100
AcDbLine
 10
98.5
 20
154.75
 30
0.0
 11
98.5
 21
161.0
 31
0.0
  0
LINE
  5
280
330
1F
100
AcDbEntity
  8
0
  6
Continuous
 62
     7
100
AcDbLine
 10
48.49999999999272
 20
161.0
 30
0.0
 11
48.49999999999272
 21
154.75
 31
0.0
  0
LINE
  5
281
330
1F
100
AcDbEntity
  8
0
  6
Continuous
 62
     7
100
AcDbLine
 10
43.74999999999272
 20
165.5
 30
0.0
 11
43.74999999999272
 21
166.75
 31
0.0
  0
LINE
  5
282
330
1F
100
AcDbEntity
  8
0
  6
Continuous
 62
     7
100
AcDbLine
 10
45.74999999999272
 20
168.75
 30
0.0
 11
101.25
 21
168.75
 31
0.0
  0
LINE
  5
283
330
1F
100
AcDbEntity
  8
0
  6
Continuous
 62
     7
100
AcDbLine
 10
103.25
 20
119.5
 30
0.0
 11
103.25
 21
118.25
 31
0.0
  0
LINE
  5
284
330
1F
100
AcDbEntity
  8
0
  6
Continuous
 62
     7
100
AcDbLine
 10
103.25
 20
166.75
 30
0.0
 11
103.25
 21
165.5
 31
0.0
  0
LINE
  5
285
330
1F
100
AcDbEntity
  8
0
  6
Continuous
 62
     7
100
AcDbLine
 10
105.5
 20
152.75
 30
0.0
 11
100.5
 21
152.75
 31
0.0
  0
LINE
  5
286
330
1F
100
AcDbEntity
  8
1
  6
DOT_CENTER
 62
     2
100
AcDbLine
 10
114.5
 20
131.5499999999956
 30
0.0
 11
114.5
 21
115.4499999999971
 31
0.0
  0
LINE
  5
287
330
1F
100
AcDbEntity
  8
1
  6
DOT_CENTER
 62
     2
100
AcDbLine
 10
122.5499999999956
 20
123.5
 30
0.0
 11
106.4499999999971
 21
123.5
 31
0.0
  0
LINE
  5
288
330
1F
100
AcDbEntity
  8
0
  6
Continuous
 62
     7
100
AcDbLine
 10
117.565862061856
 20
119.5502544616466
 30
0.0
 11
117.9219536407763
 21
119.1941628827408
 31
0.0
  0
LINE
  5
289
330
1F
100
AcDbEntity
  8
0
  6
Continuous
 62
     7
100
AcDbLine
 10
118.8058371172592
 20
120.0780463592164
 30
0.0
 11
118.4497455383462
 21
120.4341379381367
 31
0.0
  0
LINE
  5
28A
330
1F
100
AcDbEntity
  8
0
  6
Continuous
 62
     7
100
AcDbLine
 10
117.565862061856
 20
119.5502544616466
 30
0.0
 11
110.5502544616466
 21
126.565862061856
 31
0.0
  0
LINE
  5
28B
330
1F
100
AcDbEntity
  8
0
  6
Continuous
 62
     7
100
AcDbLine
 10
111.4341379381367
 20
127.4497455383389
 30
0.0
 11
111.0780463592164
 21
127.8058371172592
 31
0.0
  0
LINE
  5
28C
330
1F
100
AcDbEntity
  8
0
  6
Continuous
 62
     7
100
AcDbLine
 10
111.4341379381367
 20
127.4497455383389
 30
0.0
 11
118.4497455383462
 21
120.4341379381367
 31
0.0
  0
LINE
  5
28D
330
1F
100
AcDbEntity
  8
0
  6
Continuous
 62
     7
100
AcDbLine
 10
110.1941628827262
 20
126.9219536407763
 30
0.0
 11
110.5502544616466
 21
126.565862061856
 31
0.0
  0
LINE
  5
28E
330
1F
100
AcDbEntity
  8
0
  6
Continuous
 62
     7
100
AcDbLine
 10
110.1941628827262
 20
164.9219536407763
 30
0.0
 11
110.5502544616466
 21
164.565862061856
 31
0.0
  0
LINE
  5
28F
330
1F
100
AcDbEntity
  8
1
  6
DOT_CENTER
 62
     2
100
AcDbLine
 10
122.5499999999956
 20
161.5
 30
0.0
 11
106.4499999999971
 21
161.5
 31
0.0
  0
LINE
  5
290
330
1F
100
AcDbEntity
  8
1
  6
DOT_CENTER
 62
     2
100
AcDbLine
 10
114.5
 20
169.5499999999956
 30
0.0
 11
114.5
 21
153.4499999999971
 31
0.0
  0
LINE
  5
291
330
1F
100
AcDbEntity
  8
0
  6
Continuous
 62
     7
100
AcDbLine
 10
117.565862061856
 20
157.5502544616466
 30
0.0
 11
110.5502544616466
 21
164.565862061856
 31
0.0
  0
LINE
  5
292
330
1F
100
AcDbEntity
  8
0
  6
Continuous
 62
     7
100
AcDbLine
 10
117.565862061856
 20
157.5502544616466
 30
0.0
 11
117.9219536407763
 21
157.1941628827408
 31
0.0
  0
LINE
  5
293
330
1F
100
AcDbEntity
  8
0
  6
Continuous
 62
     7
100
AcDbLine
 10
111.4341379381367
 20
165.4497455383389
 30
0.0
 11
118.4497455383462
 21
158.4341379381367
 31
0.0
  0
LINE
  5
294
330
1F
100
AcDbEntity
  8
0
  6
Continuous
 62
     7
100
AcDbLine
 10
111.4341379381367
 20
165.4497455383389
 30
0.0
 11
111.0780463592164
 21
165.8058371172592
 31
0.0
  0
LINE
  5
295
330
1F
100
AcDbEntity
  8
0
  6
Continuous
 62
     7
100
AcDbLine
 10
118.8058371172592
 20
158.0780463592164
 30
0.0
 11
118.4497455383462
 21
158.4341379381367
 31
0.0
  0
LINE
  5
296
330
1F
100
AcDbEntity
  8
1
  6
DOT_CENTER
 62
     2
100
AcDbLine
 10
32.49999999999272
 20
131.5500000000102
 30
0.0
 11
32.49999999999272
 21
115.4500000000116
 31
0.0
  0
LINE
  5
297
330
1F
100
AcDbEntity
  8
1
  6
DOT_CENTER
 62
     2
100
AcDbLine
 10
40.54999999999563
 20
123.5000000000073
 30
0.0
 11
24.44999999998981
 21
123.5000000000073
 31
0.0
  0
LINE
  5
298
330
1F
100
AcDbEntity
  8
0
  6
Continuous
 62
     7
100
AcDbLine
 10
36.80583711725194
 20
120.0780463592309
 30
0.0
 11
36.4497455383389
 21
120.4341379381513
 31
0.0
  0
LINE
  5
299
330
1F
100
AcDbEntity
  8
0
  6
Continuous
 62
     7
100
AcDbLine
 10
35.56586206185602
 20
119.5502544616611
 30
0.0
 11
35.92195364076906
 21
119.1941628827481
 31
0.0
  0
LINE
  5
29A
330
1F
100
AcDbEntity
  8
0
  6
Continuous
 62
     7
100
AcDbLine
 10
29.4341379381367
 20
127.4497455383462
 30
0.0
 11
29.07804635921639
 21
127.8058371172665
 31
0.0
  0
LINE
  5
29B
330
1F
100
AcDbEntity
  8
0
  6
Continuous
 62
     7
100
AcDbLine
 10
35.56586206185602
 20
119.5502544616611
 30
0.0
 11
28.55025446164655
 21
126.565862061856
 31
0.0
  0
LINE
  5
29C
330
1F
100
AcDbEntity
  8
0
  6
Continuous
 62
     7
100
AcDbLine
 10
29.4341379381367
 20
127.4497455383462
 30
0.0
 11
36.4497455383389
 21
120.4341379381513
 31
0.0
  0
LINE
  5
29D
330
1F
100
AcDbEntity
  8
0
  6
Continuous
 62
     7
100
AcDbLine
 10
28.19416288272623
 20
126.9219536407763
 30
0.0
 11
28.55025446164655
 21
126.565862061856
 31
0.0
  0
LINE
  5
29E
330
1F
100
AcDbEntity
  8
0
  6
Continuous
 62
     7
100
AcDbLine
 10
28.19416288272623
 20
164.9219536407763
 30
0.0
 11
28.55025446164655
 21
164.565862061856
 31
0.0
  0
LINE
  5
29F
330
1F
100
AcDbEntity
  8
0
  6
Continuous
 62
     7
100
AcDbLine
 10
29.4341379381367
 20
165.4497455383462
 30
0.0
 11
29.07804635921639
 21
165.8058371172665
 31
0.0
  0
LINE
  5
2A0
330
1F
100
AcDbEntity
  8
0
  6
Continuous
 62
     7
100
AcDbLine
 10
36.80583711725194
 20
158.0780463592309
 30
0.0
 11
36.4497455383389
 21
158.4341379381513
 31
0.0
  0
LINE
  5
2A1
330
1F
100
AcDbEntity
  8
0
  6
Continuous
 62
     7
100
AcDbLine
 10
35.56586206185602
 20
157.5502544616611
 30
0.0
 11
35.92195364076906
 21
157.1941628827481
 31
0.0
  0
LINE
  5
2A2
330
1F
100
AcDbEntity
  8
0
  6
Continuous
 62
     7
100
AcDbLine
 10
35.56586206185602
 20
157.5502544616611
 30
0.0
 11
28.55025446164655
 21
164.565862061856
 31
0.0
  0
LINE
  5
2A3
330
1F
100
AcDbEntity
  8
0
  6
Continuous
 62
     7
100
AcDbLine
 10
29.4341379381367
 20
165.4497455383462
 30
0.0
 11
36.4497455383389
 21
158.4341379381513
 31
0.0
  0
LINE
  5
2A4
330
1F
100
AcDbEntity
  8
1
  6
DOT_CENTER
 62
     2
100
AcDbLine
 10
40.54999999999563
 20
161.5000000000073
 30
0.0
 11
24.44999999998981
 21
161.5000000000073
 31
0.0
  0
LINE
  5
2A5
330
1F
100
AcDbEntity
  8
1
  6
DOT_CENTER
 62
     2
100
AcDbLine
 10
32.49999999999272
 20
169.5500000000102
 30
0.0
 11
32.49999999999272
 21
153.4500000000116
 31
0.0
  0
LINE
  5
2A6
330
1F
100
AcDbEntity
  8
1
  6
DOT_CENTER
 62
     2
100
AcDbLine
 10
128.0
 20
142.5
 30
0.0
 11
18.99999999999272
 21
142.5
 31
0.0
  0
LINE
  5
2A7
330
1F
100
AcDbEntity
  8
1
  6
DOT_CENTER
 62
     2
100
AcDbLine
 10
73.49999999999272
 20
111.25
 30
0.0
 11
73.49999999999272
 21
173.75
 31
0.0
  0
ARC
  5
2A8
330
1F
100
AcDbEntity
  8
0
  6
Continuous
 62
     7
100
AcDbCircle
 10
114.5000000000364
 20
123.4999999999491
 30
0.0
 40
7.249999999998616
100
AcDbArc
 50
211.4042401397139
 51
224.9999999994714
  0
ARC
  5
2A9
330
1F
100
AcDbEntity
  8
0
  6
Continuous
 62
     7
100
AcDbCircle
 10
114.5
 20
161.5
 30
0.0
 40
7.250000000016016
100
AcDbArc
 50
135.0000000000817
 51
148.5957598598333
  0
ARC
  5
2AA
330
1F
100
AcDbEntity
  8
0
  6
Continuous
 62
     7
100
AcDbCircle
 10
107.8641330667597
 20
165.4999999999855
 30
0.0
 40
0.4999999999855049
100
AcDbArc
 50
270.0000000008354
 51
333.6122000405402
  0
ARC
  5
2AB
330
1F
100
AcDbEntity
  8
0
  6
Continuous
 62
     7
100
AcDbCircle
 10
114.5
 20
160.25
 30
0.0
 40
8.5
100
AcDbArc
 50
0.0
 51
45.0
  0
ARC
  5
2AC
330
1F
100
AcDbEntity
  8
0
  6
Continuous
 62
     7
100
AcDbCircle
 10
103.75
 20
119.5
 30
0.0
 40
0.5
100
AcDbArc
 50
90.0
 51
180.0
  0
ARC
  5
2AD
330
1F
100
AcDbEntity
  8
0
  6
Continuous
 62
     7
100
AcDbCircle
 10
103.75
 20
165.5
 30
0.0
 40
0.5
100
AcDbArc
 50
180.0
 51
270.0
  0
ARC
  5
2AE
330
1F
100
AcDbEntity
  8
0
  6
Continuous
 62
     7
100
AcDbCircle
 10
107.864133066767
 20
119.5000000000073
 30
0.0
 40
0.5000000000109216
100
AcDbArc
 50
26.38779996021023
 51
90.0
  0
ARC
  5
2AF
330
1F
100
AcDbEntity
  8
0
  6
Continuous
 62
     7
100
AcDbCircle
 10
114.5
 20
124.75
 30
0.0
 40
8.500000000000128
100
AcDbArc
 50
315.0000000000348
 51
0.0
  0
ARC
  5
2B0
330
1F
100
AcDbEntity
  8
0
  6
Continuous
 62
     7
100
AcDbCircle
 10
105.5
 20
132.75
 30
0.0
 40
0.5
100
AcDbArc
 50
270.0
 51
0.0
  0
ARC
  5
2B1
330
1F
100
AcDbEntity
  8
0
  6
Continuous
 62
     7
100
AcDbCircle
 10
101.25
 20
118.25
 30
0.0
 40
2.0
100
AcDbArc
 50
270.0
 51
0.0
  0
ARC
  5
2B2
330
1F
100
AcDbEntity
  8
0
  6
Continuous
 62
     7
100
AcDbCircle
 10
45.74999999999272
 20
118.25
 30
0.0
 40
2.0
100
AcDbArc
 50
180.0
 51
270.0
  0
ARC
  5
2B3
330
1F
100
AcDbEntity
  8
0
  6
Continuous
 62
     7
100
AcDbCircle
 10
39.13586693322577
 20
119.5000000000218
 30
0.0
 40
0.4999999999782005
100
AcDbArc
 50
90.00000000333505
 51
153.6122000405496
  0
ARC
  5
2B4
330
1F
100
AcDbEntity
  8
0
  6
Continuous
 62
     7
100
AcDbCircle
 10
41.49999999999272
 20
132.75
 30
0.0
 40
0.5
100
AcDbArc
 50
180.0
 51
270.0
  0
ARC
  5
2B5
330
1F
100
AcDbEntity
  8
0
  6
Continuous
 62
     7
100
AcDbCircle
 10
41.49999999999272
 20
152.25
 30
0.0
 40
0.5
100
AcDbArc
 50
90.0
 51
180.0
  0
ARC
  5
2B6
330
1F
100
AcDbEntity
  8
0
  6
Continuous
 62
     7
100
AcDbCircle
 10
32.49999999999272
 20
124.75
 30
0.0
 40
8.499999999999996
100
AcDbArc
 50
180.0
 51
224.9999999999305
  0
ARC
  5
2B7
330
1F
100
AcDbEntity
  8
0
  6
Continuous
 62
     7
100
AcDbCircle
 10
32.49999999999272
 20
123.5000000000073
 30
0.0
 40
7.250000000021186
100
AcDbArc
 50
314.9999999999592
 51
328.5957598598141
  0
ARC
  5
2B8
330
1F
100
AcDbEntity
  8
0
  6
Continuous
 62
     7
100
AcDbCircle
 10
100.5
 20
130.25
 30
0.0
 40
2.0
100
AcDbArc
 50
90.0
 51
180.0
  0
ARC
  5
2B9
330
1F
100
AcDbEntity
  8
0
  6
Continuous
 62
     7
100
AcDbCircle
 10
100.5
 20
154.75
 30
0.0
 40
2.0
100
AcDbArc
 50
180.0
 51
270.0
  0
ARC
  5
2BA
330
1F
100
AcDbEntity
  8
0
  6
Continuous
 62
     7
100
AcDbCircle
 10
98.0
 20
124.0
 30
0.0
 40
0.5
100
AcDbArc
 50
270.0
 51
0.0
  0
ARC
  5
2BB
330
1F
100
AcDbEntity
  8
0
  6
Continuous
 62
     7
100
AcDbCircle
 10
43.24999999999272
 20
119.5
 30
0.0
 40
0.5
100
AcDbArc
 50
0.0
 51
90.0
  0
ARC
  5
2BC
330
1F
100
AcDbEntity
  8
0
  6
Continuous
 62
     7
100
AcDbCircle
 10
48.99999999999272
 20
124.0
 30
0.0
 40
0.5
100
AcDbArc
 50
180.0
 51
270.0
  0
ARC
  5
2BD
330
1F
100
AcDbEntity
  8
0
  6
Continuous
 62
     7
100
AcDbCircle
 10
46.49999999999272
 20
130.25
 30
0.0
 40
2.0
100
AcDbArc
 50
0.0
 51
90.0
  0
ARC
  5
2BE
330
1F
100
AcDbEntity
  8
0
  6
Continuous
 62
     7
100
AcDbCircle
 10
46.49999999999272
 20
154.75
 30
0.0
 40
2.0
100
AcDbArc
 50
270.0
 51
0.0
  0
ARC
  5
2BF
330
1F
100
AcDbEntity
  8
0
  6
Continuous
 62
     7
100
AcDbCircle
 10
32.49999999999272
 20
160.25
 30
0.0
 40
8.499999999989896
100
AcDbArc
 50
135.0000000000344
 51
180.0
  0
ARC
  5
2C0
330
1F
100
AcDbEntity
  8
0
  6
Continuous
 62
     7
100
AcDbCircle
 10
32.49999999994907
 20
161.5000000000582
 30
0.0
 40
7.249999999998575
100
AcDbArc
 50
31.40424013971418
 51
44.99999999938996
  0
ARC
  5
2C1
330
1F
100
AcDbEntity
  8
0
  6
Continuous
 62
     7
100
AcDbCircle
 10
39.13586693321122
 20
165.5
 30
0.0
 40
0.5000000000044738
100
AcDbArc
 50
206.387799960575
 51
269.9999999983324
  0
ARC
  5
2C2
330
1F
100
AcDbEntity
  8
0
  6
Continuous
 62
     7
100
AcDbCircle
 10
43.24999999999272
 20
165.5
 30
0.0
 40
0.5
100
AcDbArc
 50
270.0
 51
0.0
  0
ARC
  5
2C3
330
1F
100
AcDbEntity
  8
0
  6
Continuous
 62
     7
100
AcDbCircle
 10
45.74999999999272
 20
166.75
 30
0.0
 40
2.0
100
AcDbArc
 50
90.0
 51
180.0
  0
ARC
  5
2C4
330
1F
100
AcDbEntity
  8
0
  6
Continuous
 62
     7
100
AcDbCircle
 10
48.99999999999272
 20
161.0
 30
0.0
 40
0.5
100
AcDbArc
 50
90.0
 51
180.0
  0
ARC
  5
2C5
330
1F
100
AcDbEntity
  8
0
  6
Continuous
 62
     7
100
AcDbCircle
 10
98.0
 20
161.0
 30
0.0
 40
0.5
100
AcDbArc
 50
0.0
 51
90.0
  0
ARC
  5
2C6
330
1F
100
AcDbEntity
  8
0
  6
Continuous
 62
     7
100
AcDbCircle
 10
101.25
 20
166.75
 30
0.0
 40
2.0
100
AcDbArc
 50
0.0
 51
90.0
  0
ARC
  5
2C7
330
1F
100
AcDbEntity
  8
0
  6
Continuous
 62
     7
100
AcDbCircle
 10
105.5
 20
152.25
 30
0.0
 40
0.5
100
AcDbArc
 50
0.0
 51
90.0
  0
ARC
  5
2C8
330
1F
100
AcDbEntity
  8
0
  6
Continuous
 62
     7
100
AcDbCircle
 10
114.5
 20
123.5
 30
0.0
 40
5.499999999999016
100
AcDbArc
 50
308.4750211558571
 51
321.5249788440833
  0
ARC
  5
2C9
330
1F
100
AcDbEntity
  8
0
  6
Continuous
 62
     7
100
AcDbCircle
 10
114.5
 20
123.5
 30
0.0
 40
5.50000000000356
100
AcDbArc
 50
321.5249788440833
 51
128.4750211559167
  0
ARC
  5
2CA
330
1F
100
AcDbEntity
  8
0
  6
Continuous
 62
     7
100
AcDbCircle
 10
114.5
 20
123.4999999999855
 30
0.0
 40
5.000000000015934
100
AcDbArc
 50
142.180755781433
 51
307.8192442185376
  0
ARC
  5
2CB
330
1F
100
AcDbEntity
  8
0
  6
Continuous
 62
     7
100
AcDbCircle
 10
114.5
 20
123.4999999999855
 30
0.0
 40
4.999999999996957
100
AcDbArc
 50
322.1807557815788
 51
127.8192442185019
  0
ARC
  5
2CC
330
1F
100
AcDbEntity
  8
0
  6
Continuous
 62
     7
100
AcDbCircle
 10
114.5
 20
123.5
 30
0.0
 40
5.50000000000356
100
AcDbArc
 50
128.4750211559167
 51
141.5249788442375
  0
ARC
  5
2CD
330
1F
100
AcDbEntity
  8
0
  6
Continuous
 62
     7
100
AcDbCircle
 10
114.5
 20
123.5
 30
0.0
 40
5.500000000010441
100
AcDbArc
 50
141.5249788442375
 51
308.4750211558571
  0
ARC
  5
2CE
330
1F
100
AcDbEntity
  8
0
  6
Continuous
 62
     7
100
AcDbCircle
 10
114.5
 20
161.5
 30
0.0
 40
5.500000000003569
100
AcDbArc
 50
321.5249788440833
 51
128.4750211559167
  0
ARC
  5
2CF
330
1F
100
AcDbEntity
  8
0
  6
Continuous
 62
     7
100
AcDbCircle
 10
114.5
 20
161.4999999999855
 30
0.0
 40
4.999999999996957
100
AcDbArc
 50
322.1807557815788
 51
127.8192442185019
  0
ARC
  5
2D0
330
1F
100
AcDbEntity
  8
0
  6
Continuous
 62
     7
100
AcDbCircle
 10
114.5
 20
161.5
 30
0.0
 40
5.500000000003549
100
AcDbArc
 50
128.4750211559167
 51
141.5249788442374
  0
ARC
  5
2D1
330
1F
100
AcDbEntity
  8
0
  6
Continuous
 62
     7
100
AcDbCircle
 10
114.5
 20
161.4999999999855
 30
0.0
 40
5.000000000015934
100
AcDbArc
 50
142.180755781433
 51
307.8192442185376
  0
ARC
  5
2D2
330
1F
100
AcDbEntity
  8
0
  6
Continuous
 62
     7
100
AcDbCircle
 10
114.5
 20
161.5
 30
0.0
 40
5.50000000001045
100
AcDbArc
 50
141.5249788442374
 51
308.4750211558572
  0
ARC
  5
2D3
330
1F
100
AcDbEntity
  8
0
  6
Continuous
 62
     7
100
AcDbCircle
 10
114.5
 20
161.5
 30
0.0
 40
5.499999999999004
100
AcDbArc
 50
308.4750211558572
 51
321.5249788440833
  0
ARC
  5
2D4
330
1F
100
AcDbEntity
  8
0
  6
Continuous
 62
     7
100
AcDbCircle
 10
32.49999999999272
 20
123.5000000000073
 30
0.0
 40
5.500000000000176
100
AcDbArc
 50
141.5249788442497
 51
308.4750211558575
  0
ARC
  5
2D5
330
1F
100
AcDbEntity
  8
0
  6
Continuous
 62
     7
100
AcDbCircle
 10
32.49999999999272
 20
123.5000000000073
 30
0.0
 40
5.499999999999047
100
AcDbArc
 50
308.4750211558575
 51
321.5249788441421
  0
ARC
  5
2D6
330
1F
100
AcDbEntity
  8
0
  6
Continuous
 62
     7
100
AcDbCircle
 10
32.49999999999272
 20
123.5
 30
0.0
 40
4.999999999996879
100
AcDbArc
 50
322.1807557815795
 51
127.8192442184865
  0
ARC
  5
2D7
330
1F
100
AcDbEntity
  8
0
  6
Continuous
 62
     7
100
AcDbCircle
 10
32.49999999999272
 20
123.5
 30
0.0
 40
5.000000000001335
100
AcDbArc
 50
142.1807557815134
 51
307.8192442186038
  0
ARC
  5
2D8
330
1F
100
AcDbEntity
  8
0
  6
Continuous
 62
     7
100
AcDbCircle
 10
32.49999999999272
 20
123.5000000000073
 30
0.0
 40
5.499999999999035
100
AcDbArc
 50
128.4750211558573
 51
141.5249788442497
  0
ARC
  5
2D9
330
1F
100
AcDbEntity
  8
0
  6
Continuous
 62
     7
100
AcDbCircle
 10
32.49999999999272
 20
123.5000000000073
 30
0.0
 40
5.499999999999103
100
AcDbArc
 50
321.5249788441421
 51
128.4750211558573
  0
ARC
  5
2DA
330
1F
100
AcDbEntity
  8
0
  6
Continuous
 62
     7
100
AcDbCircle
 10
32.49999999999272
 20
161.5000000000073
 30
0.0
 40
5.499999999999025
100
AcDbArc
 50
128.4750211558574
 51
141.5249788442496
  0
ARC
  5
2DB
330
1F
100
AcDbEntity
  8
0
  6
Continuous
 62
     7
100
AcDbCircle
 10
32.49999999999272
 20
161.5000000000073
 30
0.0
 40
5.499999999999058
100
AcDbArc
 50
308.4750211558574
 51
321.5249788441423
  0
ARC
  5
2DC
330
1F
100
AcDbEntity
  8
0
  6
Continuous
 62
     7
100
AcDbCircle
 10
32.49999999999272
 20
161.5000000000073
 30
0.0
 40
5.499999999999094
100
AcDbArc
 50
321.5249788441423
 51
128.4750211558574
  0
ARC
  5
2DD
330
1F
100
AcDbEntity
  8
0
  6
Continuous
 62
     7
100
AcDbCircle
 10
32.49999999999272
 20
161.5
 30
0.0
 40
4.99999999999687
100
AcDbArc
 50
322.1807557815796
 51
127.8192442184865
  0
ARC
  5
2DE
330
1F
100
AcDbEntity
  8
0
  6
Continuous
 62
     7
100
AcDbCircle
 10
32.49999999999272
 20
161.5000000000073
 30
0.0
 40
5.500000000000185
100
AcDbArc
 50
141.5249788442496
 51
308.4750211558574
  0
ARC
  5
2DF
330
1F
100
AcDbEntity
  8
0
  6
Continuous
 62
     7
100
AcDbCircle
 10
32.49999999999272
 20
161.5
 30
0.0
 40
5.000000000001335
100
AcDbArc
 50
142.1807557815134
 51
307.8192442186038
  0
CIRCLE
  5
2E0
330
1F
100
AcDbEntity
  8
1
  6
Continuous
 62
     7
100
AcDbCircle
 10
102.0000000000073
 20
129.0
 30
0.0
 40
1.949999999989799
  0
CIRCLE
  5
2E1
330
1F
100
AcDbEntity
  8
1
  6
Continuous
 62
     7
100
AcDbCircle
 10
45.0
 20
129.0
 30
0.0
 40
1.94999999999709
  0
CIRCLE
  5
2E2
330
1F
100
AcDbEntity
  8
1
  6
Continuous
 62
     7
100
AcDbCircle
 10
102.0000000000073
 20
156.0
 30
0.0
 40
1.949999999989799
  0
CIRCLE
  5
2E3
330
1F
100
AcDbEntity
  8
1
  6
Continuous
 62
     7
100
AcDbCircle
 10
45.0
 20
156.0
 30
0.0
 40
1.94999999999709
  0
CIRCLE
  5
2E4
330
1F
100
AcDbEntity
  8
1
  6
Continuous
 62
     7
100
AcDbCircle
 10
102.0000000000073
 20
129.0
 30
0.0
 40
1.5
  0
CIRCLE
  5
2E5
330
1F
100
AcDbEntity
  8
1
  6
Continuous
 62
     7
100
AcDbCircle
 10
102.0000000000073
 20
156.0
 30
0.0
 40
1.5
  0
CIRCLE
  5
2E6
330
1F
100
AcDbEntity
  8
1
  6
Continuous
 62
     7
100
AcDbCircle
 10
45.0
 20
156.0
 30
0.0
 40
1.5
  0
CIRCLE
  5
2E7
330
1F
100
AcDbEntity
  8
1
  6
Continuous
 62
     7
100
AcDbCircle
 10
45.0
 20
129.0
 30
0.0
 40
1.5
  0
CIRCLE
  5
2E8
330
1F
100
AcDbEntity
  8
1
  6
Continuous
 62
     7
100
AcDbCircle
 10
114.5000000000073
 20
142.5
 30
0.0
 40
4.049999999988302
  0
CIRCLE
  5
2E9
330
1F
100
AcDbEntity
  8
1
  6
Continuous
 62
     7
100
AcDbCircle
 10
114.5000000000073
 20
142.5
 30
0.0
 40
5.5
  0
CIRCLE
  5
2EA
330
1F
100
AcDbEntity
  8
1
  6
Continuous
 62
     7
100
AcDbCircle
 10
114.5000000000073
 20
142.5
 30
0.0
 40
7.0
  0
CIRCLE
  5
2EB
330
1F
100
AcDbEntity
  8
1
  6
Continuous
 62
     7
100
AcDbCircle
 10
114.5000000000073
 20
142.5
 30
0.0
 40
6.299999999988302
  0
CIRCLE
  5
2EC
330
1F
100
AcDbEntity
  8
1
  6
Continuous
 62
     7
100
AcDbCircle
 10
32.5
 20
142.5
 30
0.0
 40
2.5
  0
CIRCLE
  5
2ED
330
1F
100
AcDbEntity
  8
1
  6
Continuous
 62
     7
100
AcDbCircle
 10
32.5
 20
142.5
 30
0.0
 40
4.0
  0
SPLINE
  5
2EE
330
1F
100
AcDbEntity
  8
1
  6
DOT_CENTER
 62
     4
100
AcDbSpline
210
0.0
220
0.0
230
1.0
 70
     8
 71
     3
 72
    11
 73
     7
 74
     5
 42
0.000000001
 43
0.0000000001
 44
0.00000001
 40
0.0
 40
0.0
 40
0.0
 40
0.0
 40
0.854830883929576
 40
1.764721253117403
 40
2.617249681768564
 40
3.481174358205643
 40
3.481174358205643
 40
3.481174358205643
 40
3.481174358205643
 10
90.16757243540633
 20
49.64158419930755
 30
0.0
 10
89.90840304980705
 20
49.48837792469087
 30
0.0
 10
89.3733712448678
 20
49.17209737707195
 30
0.0
 10
89.27874357146197
 20
48.22830986083501
 30
0.0
 10
88.73141684917684
 20
47.51573969078164
 30
0.0
 10
88.67496848355925
 20
46.93425626624268
 30
0.0
 10
88.64655690330983
 20
46.64158419930755
 30
0.0
 11
90.16757243540633
 21
49.64158419930755
 31
0.0
 11
89.50063469791326
 21
49.1068600733855
 31
0.0
 11
89.19575789692242
 21
48.24956745400947
 31
0.0
 11
88.80810963368631
 21
47.49026938988976
 31
0.0
 11
88.64655690330983
 21
46.64158419930755
 31
0.0
  0
ARC
  5
2EF
330
1F
100
AcDbEntity
  8
1
  6
Continuous
 62
     7
100
AcDbCircle
 10
179.3913673030111
 20
158.9399999999951
 30
0.0
 40
0.2100000000099303
100
AcDbArc
 50
163.3984504003951
 51
180.0
  0
ARC
  5
2F0
330
1F
100
AcDbEntity
  8
1
  6
Continuous
 62
     7
100
AcDbCircle
 10
179.3913673030111
 20
153.0599999999977
 30
0.0
 40
0.2099999999991837
100
AcDbArc
 50
180.0
 51
270.0
  0
ARC
  5
2F1
330
1F
100
AcDbEntity
  8
1
  6
Continuous
 62
     7
100
AcDbCircle
 10
179.3913673030111
 20
131.9399999999951
 30
0.0
 40
0.2100000000064028
100
AcDbArc
 50
90.0
 51
180.0
  0
ARC
  5
2F2
330
1F
100
AcDbEntity
  8
1
  6
Continuous
 62
     7
100
AcDbCircle
 10
104.9400000000023
 20
75.23158419931133
 30
0.0
 40
0.2099999999991979
100
AcDbArc
 50
0.0
 51
90.0
  0
ARC
  5
2F3
330
1F
100
AcDbEntity
  8
1
  6
Continuous
 62
     7
100
AcDbCircle
 10
99.05999999999767
 20
75.23158419931133
 30
0.0
 40
0.2099999999991269
100
AcDbArc
 50
90.0
 51
179.9999999980149
  0
ARC
  5
2F4
330
1F
100
AcDbEntity
  8
1
  6
Continuous
 62
     7
100
AcDbCircle
 10
47.94000000000233
 20
75.23158419931133
 30
0.0
 40
0.209999999999134
100
AcDbArc
 50
0.0
 51
90.0
  0
ARC
  5
2F5
330
1F
100
AcDbEntity
  8
1
  6
Continuous
 62
     7
100
AcDbCircle
 10
42.05999999999767
 20
75.23158419931133
 30
0.0
 40
0.2099999999991269
100
AcDbArc
 50
90.0
 51
179.9999999980149
  0
ARC
  5
2F6
330
1F
100
AcDbEntity
  8
1
  6
Continuous
 62
     7
100
AcDbCircle
 10
179.3913673030111
 20
126.0599999999977
 30
0.0
 40
0.2099999999991837
100
AcDbArc
 50
180.0
 51
196.6015495977248
  0
MTEXT
  5
2F7
330
1F
100
AcDbEntity
  8
1
 62
     4
100
AcDbMText
 10
9.0
 20
15.0
 30
0.0
 40
3.0
 41
0.0
 71
     7
 72
     1
  1
A=25,8 mm\P27 mm max. for electrical and optical contacts\P26,5 mm max. for pneumatic contacts
  7
CONVERTER_11
 73
     1
 44
1.32052821128451
  0
DIMENSION
  5
303
330
1F
100
AcDbEntity
  8
1
100
AcDbDimension
  2
*D12
 10
139.0327777009225
 20
72.44158419931046
 30
0.0
 11
135.5327777009225
 21
59.541584199309
 31
0.0
 70
    32
  1
A
 71
     5
 42
-1.0
 53
90.0
  3
ME10_DIM_17
100
AcDbAlignedDimension
 13
123.0
 23
46.64158419930755
 33
0.0
 14
123.0
 24
72.44158419931046
 34
0.0
 50
90.0
100
AcDbRotatedDimension
  0
DIMENSION
  5
310
330
1F
100
AcDbEntity
  8
1
100
AcDbDimension
  2
*D13
 10
111.9999999999927
 20
87.9434824044074
 30
0.0
 11
124.0
 21
91.4434824044074
 31
0.0
 70
    32
  1
<>
 71
     5
 42
-1.0
 53
0.00013888888889
  3
ME10_DIM_18
100
AcDbAlignedDimension
 13
117.0
 23
80.14158419930754
 33
0.0
 14
112.0
 24
80.14158419930754
 34
0.0
100
AcDbRotatedDimension
  0
DIMENSION
  5
31D
330
1F
100
AcDbEntity
  8
1
100
AcDbDimension
  2
*D14
 10
43.49999999999272
 20
88.14348240442632
 30
0.0
 11
53.09999999999127
 21
91.64348240442632
 31
0.0
 70
    32
  1
<>
 71
     5
 42
-1.0
 53
0.00013888888889
  3
ME10_DIM_19
100
AcDbAlignedDimension
 13
46.5
 23
75.44196807072149
 33
0.0
 14
43.5
 24
75.44175194451964
 34
0.0
100
AcDbRotatedDimension
  0
DIMENSION
  5
32A
330
1F
100
AcDbEntity
  8
1
100
AcDbDimension
  2
*D15
 10
129.5
 20
80.64158419930754
 30
0.0
 11
126.0
 21
77.14158419930754
 31
0.0
 70
    32
  1
<>
 71
     5
 42
-1.0
 53
90.0
  3
ME10_DIM_20
100
AcDbAlignedDimension
 13
118.0
 23
73.64158419930754
 33
0.0
 14
116.5
 24
80.64158419930754
 34
0.0
 50
90.0
100
AcDbRotatedDimension
  0
DIMENSION
  5
335
330
1F
100
AcDbEntity
  8
1
100
AcDbDimension
  2
*D16
 10
23.99999999999272
 20
178.75
 30
0.0
 11
73.49999999999272
 21
182.25
 31
0.0
 70
    32
  1
<>
 71
     5
 42
-1.0
 53
0.00013888888889
  3
ME10_DIM_21
100
AcDbAlignedDimension
 13
123.0
 23
160.25
 33
0.0
 14
23.99999999999272
 24
160.25
 34
0.0
100
AcDbRotatedDimension
  0
DIMENSION
  5
340
330
1F
100
AcDbEntity
  8
1
100
AcDbDimension
  2
*D17
 10
32.49999999999272
 20
101.25
 30
0.0
 11
73.49999999999272
 21
104.75
 31
0.0
 70
    32
  1
<>
 71
     5
 42
-1.0
 53
0.00013888888889
  3
ME10_DIM_22
100
AcDbAlignedDimension
 13
114.5
 23
115.4499999999971
 33
0.0
 14
32.49999999999272
 24
115.4500000000116
 34
0.0
100
AcDbRotatedDimension
  0
DIMENSION
  5
34B
330
1F
100
AcDbEntity
  8
1
100
AcDbDimension
  2
*D18
 10
13.99999999999273
 20
168.75
 30
0.0
 11
10.34999999999127
 21
142.5
 31
0.0
 70
    32
  1
<>
 71
     5
 42
-1.0
 53
90.0
  3
ME10_DIM_23
100
AcDbAlignedDimension
 13
45.74999999999272
 23
116.25
 33
0.0
 14
45.74999999999272
 24
168.75
 34
0.0
 50
90.0
100
AcDbRotatedDimension
  0
DIMENSION
  5
356
330
1F
100
AcDbEntity
  8
1
100
AcDbDimension
  2
*D19
 10
138.0
 20
161.5
 30
0.0
 11
134.5
 21
142.5
 31
0.0
 70
    32
  1
<>
 71
     5
 42
-1.0
 53
90.0
  3
ME10_DIM_24
100
AcDbAlignedDimension
 13
122.5499999999956
 23
123.5
 33
0.0
 14
122.5499999999956
 24
161.5
 34
0.0
 50
90.0
100
AcDbRotatedDimension
  0
ENDSEC
  0
SECTION
  2
OBJECTS
  0
DICTIONARY
  5
C
330
0
100
AcDbDictionary
281
     1
  3
ACAD_GROUP
350
D
  3
ACAD_LAYOUT
350
1A
  3
ACAD_MATERIAL
350
3B
  3
ACAD_MLEADERSTYLE
350
359
  3
ACAD_MLINESTYLE
350
17
  3
ACAD_PLOTSETTINGS
350
19
  3
ACAD_PLOTSTYLENAME
350
E
  3
ACAD_VISUALSTYLE
350
2A
  3
AcDbVariableDictionary
350
357
  0
DICTIONARY
  5
D
102
{ACAD_REACTORS
330
C
102
}
330
C
100
AcDbDictionary
281
     1
  0
DICTIONARY
  5
1A
102
{ACAD_REACTORS
330
C
102
}
330
C
100
AcDbDictionary
281
     1
  3
Layout1
350
1E
  3
Layout2
350
26
  3
Model
350
22
  0
DICTIONARY
  5
3B
102
{ACAD_REACTORS
330
C
102
}
330
C
100
AcDbDictionary
281
     1
  3
ByBlock
350
3D
  3
ByLayer
350
3C
  3
Global
350
3E
  0
DICTIONARY
  5
359
102
{ACAD_REACTORS
330
C
102
}
330
C
100
AcDbDictionary
281
     1
  0
DICTIONARY
  5
17
102
{ACAD_REACTORS
330
C
102
}
330
C
100
AcDbDictionary
281
     1
  3
Standard
350
18
  0
DICTIONARY
  5
19
102
{ACAD_REACTORS
330
C
102
}
330
C
100
AcDbDictionary
281
     1
  0
ACDBDICTIONARYWDFLT
  5
E
102
{ACAD_REACTORS
330
C
102
}
330
C
100
AcDbDictionary
281
     1
  3
Normal
350
F
100
AcDbDictionaryWithDefault
340
F
  0
DICTIONARY
  5
2A
102
{ACAD_REACTORS
330
C
102
}
330
C
100
AcDbDictionary
281
     1
  3
2dWireframe
350
2F
  3
3D Hidden
350
31
  3
3dWireframe
350
30
  3
Basic
350
32
  3
Brighten
350
36
  3
ColorChange
350
3A
  3
Conceptual
350
34
  3
Dim
350
35
  3
Facepattern
350
39
  3
Flat
350
2B
  3
FlatWithEdges
350
2C
  3
Gouraud
350
2D
  3
GouraudWithEdges
350
2E
  3
Linepattern
350
38
  3
Realistic
350
33
  3
Thicken
350
37
  0
DICTIONARY
  5
357
102
{ACAD_REACTORS
330
C
102
}
330
C
100
AcDbDictionary
281
     1
  3
DIMASSOC
350
35A
  3
HIDETEXT
350
35B
  0
LAYOUT
  5
1E
102
{ACAD_REACTORS
330
1A
102
}
330
1A
100
AcDbPlotSettings
  1

  2
none_device
  4

  6

 40
0.0
 41
0.0
 42
0.0
 43
0.0
 44
0.0
 45
0.0
 46
0.0
 47
0.0
 48
0.0
 49
0.0
140
0.0
141
0.0
142
1.0
143
1.0
 70
   688
 72
     0
 73
     0
 74
     5
  7

 75
    16
147
1.0
148
0.0
149
0.0
100
AcDbLayout
  1
Layout1
 70
     1
 71
     1
 10
0.0
 20
0.0
 11
12.0
 21
9.0
 12
0.0
 22
0.0
 32
0.0
 14
1.00000000000000E+20
 24
1.00000000000000E+20
 34
1.00000000000000E+20
 15
-1.00000000000000E+20
 25
-1.00000000000000E+20
 35
-1.00000000000000E+20
146
0.0
 13
0.0
 23
0.0
 33
0.0
 16
1.0
 26
0.0
 36
0.0
 17
0.0
 27
1.0
 37
0.0
 76
     0
330
1B
  0
LAYOUT
  5
26
102
{ACAD_REACTORS
330
1A
102
}
330
1A
100
AcDbPlotSettings
  1

  2
none_device
  4

  6

 40
0.0
 41
0.0
 42
0.0
 43
0.0
 44
0.0
 45
0.0
 46
0.0
 47
0.0
 48
0.0
 49
0.0
140
0.0
141
0.0
142
1.0
143
1.0
 70
   688
 72
     0
 73
     0
 74
     5
  7

 75
    16
147
1.0
148
0.0
149
0.0
100
AcDbLayout
  1
Layout2
 70
     1
 71
     2
 10
0.0
 20
0.0
 11
0.0
 21
0.0
 12
0.0
 22
0.0
 32
0.0
 14
0.0
 24
0.0
 34
0.0
 15
0.0
 25
0.0
 35
0.0
146
0.0
 13
0.0
 23
0.0
 33
0.0
 16
1.0
 26
0.0
 36
0.0
 17
0.0
 27
1.0
 37
0.0
 76
     0
330
23
  0
LAYOUT
  5
22
102
{ACAD_REACTORS
330
1A
102
}
330
1A
100
AcDbPlotSettings
  1

  2
none_device
  4

  6

 40
0.0
 41
0.0
 42
0.0
 43
0.0
 44
0.0
 45
0.0
 46
0.0
 47
0.0
 48
0.0
 49
0.0
140
0.0
141
0.0
142
1.0
143
1.0
 70
  1712
 72
     0
 73
     0
 74
     0
  7

 75
     0
147
1.0
148
0.0
149
0.0
100
AcDbLayout
  1
Model
 70
     1
 71
     0
 10
0.0
 20
0.0
 11
12.0
 21
9.0
 12
0.0
 22
0.0
 32
0.0
 14
0.0
 24
0.0
 34
0.0
 15
297.0
 25
210.0
 35
0.0
146
0.0
 13
0.0
 23
0.0
 33
0.0
 16
1.0
 26
0.0
 36
0.0
 17
0.0
 27
1.0
 37
0.0
 76
     0
330
1F
331
29
  0
MATERIAL
  5
3D
102
{ACAD_REACTORS
330
3B
102
}
102
{ACAD_XDICTIONARY
360
37E
102
}
330
3B
100
AcDbMaterial
  1
ByBlock
  0
MATERIAL
  5
3C
102
{ACAD_REACTORS
330
3B
102
}
102
{ACAD_XDICTIONARY
360
37C
102
}
330
3B
100
AcDbMaterial
  1
ByLayer
  0
MATERIAL
  5
3E
102
{ACAD_REACTORS
330
3B
102
}
102
{ACAD_XDICTIONARY
360
380
102
}
330
3B
100
AcDbMaterial
  1
Global
  0
MLINESTYLE
  5
18
102
{ACAD_REACTORS
330
17
102
}
330
17
100
AcDbMlineStyle
  2
Standard
 70
     0
  3

 62
   256
 51
90.0
 52
90.0
 71
     2
 49
0.5
 62
   256
  6
BYLAYER
 49
-0.5
 62
   256
  6
BYLAYER
  0
ACDBPLACEHOLDER
  5
F
102
{ACAD_REACTORS
330
E
102
}
330
E
  0
VISUALSTYLE
  5
2F
102
{ACAD_REACTORS
330
2A
102
}
102
{ACAD_XDICTIONARY
360
364
102
}
330
2A
100
AcDbVisualStyle
  2
2dWireframe
 70
     4
 71
     0
 72
     2
 73
     0
 90
        0
 40
-0.6
 41
-30.0
 62
     5
 63
     7
 74
     1
 91
        4
 64
     7
 65
   257
 75
     1
175
     1
 42
1.0
 92
        0
 66
   257
 43
1.0
 76
     1
 77
     6
 78
     2
 67
     7
 79
     5
170
     0
171
     0
290
     0
174
     0
 93
        1
 44
0.0
173
     0
291
     0
 45
0.0
1001
ACAD
1000
AcDbSavedByObjectVersion
1070
     0
  0
VISUALSTYLE
  5
31
102
{ACAD_REACTORS
330
2A
102
}
102
{ACAD_XDICTIONARY
360
368
102
}
330
2A
100
AcDbVisualStyle
  2
3D Hidden
 70
     6
 71
     1
 72
     2
 73
     2
 90
        0
 40
-0.6
 41
-30.0
 62
     5
 63
     7
 74
     2
 91
        2
 64
     7
 65
   257
 75
     2
175
     1
 42
40.0
 92
        0
 66
   257
 43
1.0
 76
     1
 77
     6
 78
     2
 67
     7
 79
     3
170
     0
171
     0
290
     0
174
     0
 93
        1
 44
0.0
173
     0
291
     0
 45
0.0
1001
ACAD
1000
AcDbSavedByObjectVersion
1070
     0
  0
VISUALSTYLE
  5
30
102
{ACAD_REACTORS
330
2A
102
}
102
{ACAD_XDICTIONARY
360
366
102
}
330
2A
100
AcDbVisualStyle
  2
3dWireframe
 70
     5
 71
     0
 72
     2
 73
     0
 90
        0
 40
-0.6
 41
-30.0
 62
     5
 63
     7
 74
     1
 91
        4
 64
     7
 65
   257
 75
     1
175
     1
 42
1.0
 92
        0
 66
   257
 43
1.0
 76
     1
 77
     6
 78
     2
 67
     7
 79
     5
170
     0
171
     0
290
     0
174
     0
 93
        1
 44
0.0
173
     0
291
     0
 45
0.0
1001
ACAD
1000
AcDbSavedByObjectVersion
1070
     0
  0
VISUALSTYLE
  5
32
102
{ACAD_REACTORS
330
2A
102
}
102
{ACAD_XDICTIONARY
360
36A
102
}
330
2A
100
AcDbVisualStyle
  2
Basic
 70
     7
 71
     1
 72
     0
 73
     1
 90
        0
 40
-0.6
 41
-30.0
 62
     5
 63
     7
 74
     0
 91
        4
 64
     7
 65
   257
 75
     1
175
     1
 42
1.0
 92
        8
 66
     7
 43
1.0
 76
     1
 77
     6
 78
     2
 67
     7
 79
     5
170
     0
171
     0
290
     0
174
     0
 93
        1
 44
0.0
173
     0
291
     1
 45
0.0
1001
ACAD
1000
AcDbSavedByObjectVersion
1070
     0
  0
VISUALSTYLE
  5
36
102
{ACAD_REACTORS
330
2A
102
}
102
{ACAD_XDICTIONARY
360
372
102
}
330
2A
100
AcDbVisualStyle
  2
Brighten
 70
    12
 71
     2
 72
     2
 73
     0
 90
        0
 40
-0.6
 41
-30.0
 62
     5
 63
     7
 74
     1
 91
        4
 64
     7
 65
   257
 75
     1
175
     1
 42
1.0
 92
        8
 66
     7
 43
1.0
 76
     1
 77
     6
 78
     2
 67
     7
 79
     5
170
     0
171
     0
290
     0
174
     0
 93
        1
 44
50.0
173
     0
291
     1
 45
0.0
1001
ACAD
1000
AcDbSavedByObjectVersion
1070
     0
  0
VISUALSTYLE
  5
3A
102
{ACAD_REACTORS
330
2A
102
}
102
{ACAD_XDICTIONARY
360
37A
102
}
330
2A
100
AcDbVisualStyle
  2
ColorChange
 70
    16
 71
     2
 72
     2
 73
     3
 90
        0
 40
-0.6
 41
-30.0
 62
     5
 63
     8
 74
     1
 91
        4
 64
     7
 65
   257
 75
     1
175
     1
 42
1.0
 92
        8
 66
     8
 43
1.0
 76
     1
 77
     6
 78
     2
 67
     7
 79
     5
170
     0
171
     0
290
     0
174
     0
 93
        1
 44
0.0
173
     0
291
     1
 45
0.0
1001
ACAD
1000
AcDbSavedByObjectVersion
1070
     0
  0
VISUALSTYLE
  5
34
102
{ACAD_REACTORS
330
2A
102
}
102
{ACAD_XDICTIONARY
360
36E
102
}
330
2A
100
AcDbVisualStyle
  2
Conceptual
 70
     9
 71
     3
 72
     2
 73
     0
 90
        0
 40
-0.6
 41
-30.0
 62
     5
 63
     7
 74
     2
 91
        2
 64
     7
 65
   257
 75
     1
175
     1
 42
40.0
 92
        8
 66
     7
 43
1.0
 76
     1
 77
     6
 78
     2
 67
     7
 79
     3
170
     0
171
     0
290
     0
174
     0
 93
        1
 44
0.0
173
     0
291
     0
 45
0.0
1001
ACAD
1000
AcDbSavedByObjectVersion
1070
     0
  0
VISUALSTYLE
  5
35
102
{ACAD_REACTORS
330
2A
102
}
102
{ACAD_XDICTIONARY
360
370
102
}
330
2A
100
AcDbVisualStyle
  2
Dim
 70
    11
 71
     2
 72
     2
 73
     0
 90
        0
 40
-0.6
 41
-30.0
 62
     5
 63
     7
 74
     1
 91
        4
 64
     7
 65
   257
 75
     1
175
     1
 42
1.0
 92
        8
 66
     7
 43
1.0
 76
     1
 77
     6
 78
     2
 67
     7
 79
     5
170
     0
171
     0
290
     0
174
     0
 93
        1
 44
-50.0
173
     0
291
     1
 45
0.0
1001
ACAD
1000
AcDbSavedByObjectVersion
1070
     0
  0
VISUALSTYLE
  5
39
102
{ACAD_REACTORS
330
2A
102
}
102
{ACAD_XDICTIONARY
360
378
102
}
330
2A
100
AcDbVisualStyle
  2
Facepattern
 70
    15
 71
     2
 72
     2
 73
     0
 90
        0
 40
-0.6
 41
-30.0
 62
     5
 63
     7
 74
     1
 91
        4
 64
     7
 65
   257
 75
     1
175
     1
 42
1.0
 92
        8
 66
     7
 43
1.0
 76
     1
 77
     6
 78
     2
 67
     7
 79
     5
170
     0
171
     0
290
     0
174
     0
 93
        1
 44
0.0
173
     0
291
     1
 45
0.0
1001
ACAD
1000
AcDbSavedByObjectVersion
1070
     0
  0
VISUALSTYLE
  5
2B
102
{ACAD_REACTORS
330
2A
102
}
102
{ACAD_XDICTIONARY
360
35C
102
}
330
2A
100
AcDbVisualStyle
  2
Flat
 70
     0
 71
     2
 72
     1
 73
     1
 90
        2
 40
-0.6
 41
30.0
 62
     5
 63
     7
 74
     0
 91
        4
 64
     7
 65
   257
 75
     1
175
     1
 42
1.0
 92
        8
 66
     7
 43
1.0
 76
     1
 77
     6
 78
     2
 67
     7
 79
     5
170
     0
171
     0
290
     0
174
     0
 93
       13
 44
0.0
173
     0
291
     1
 45
0.0
1001
ACAD
1000
AcDbSavedByObjectVersion
1070
     0
  0
VISUALSTYLE
  5
2C
102
{ACAD_REACTORS
330
2A
102
}
102
{ACAD_XDICTIONARY
360
35E
102
}
330
2A
100
AcDbVisualStyle
  2
FlatWithEdges
 70
     1
 71
     2
 72
     1
 73
     1
 90
        2
 40
-0.6
 41
30.0
 62
     5
 63
     7
 74
     1
 91
        4
 64
     7
 65
   257
 75
     1
175
     1
 42
1.0
 92
        0
 66
   257
 43
1.0
 76
     1
 77
     6
 78
     2
 67
     7
 79
     5
170
     0
171
     0
290
     0
174
     0
 93
       13
 44
0.0
173
     0
291
     1
 45
0.0
1001
ACAD
1000
AcDbSavedByObjectVersion
1070
     0
  0
VISUALSTYLE
  5
2D
102
{ACAD_REACTORS
330
2A
102
}
102
{ACAD_XDICTIONARY
360
360
102
}
330
2A
100
AcDbVisualStyle
  2
Gouraud
 70
     2
 71
     2
 72
     2
 73
     1
 90
        2
 40
-0.6
 41
30.0
 62
     5
 63
     7
 74
     0
 91
        4
 64
     7
 65
   257
 75
     1
175
     1
 42
1.0
 92
        0
 66
     7
 43
1.0
 76
     1
 77
     6
 78
     2
 67
     7
 79
     5
170
     0
171
     0
290
     0
174
     0
 93
       13
 44
0.0
173
     0
291
     1
 45
0.0
1001
ACAD
1000
AcDbSavedByObjectVersion
1070
     0
  0
VISUALSTYLE
  5
2E
102
{ACAD_REACTORS
330
2A
102
}
102
{ACAD_XDICTIONARY
360
362
102
}
330
2A
100
AcDbVisualStyle
  2
GouraudWithEdges
 70
     3
 71
     2
 72
     2
 73
     1
 90
        2
 40
-0.6
 41
30.0
 62
     5
 63
     7
 74
     1
 91
        4
 64
     7
 65
   257
 75
     1
175
     1
 42
1.0
 92
        0
 66
   257
 43
1.0
 76
     1
 77
     6
 78
     2
 67
     7
 79
     5
170
     0
171
     0
290
     0
174
     0
 93
       13
 44
0.0
173
     0
291
     1
 45
0.0
1001
ACAD
1000
AcDbSavedByObjectVersion
1070
     0
  0
VISUALSTYLE
  5
38
102
{ACAD_REACTORS
330
2A
102
}
102
{ACAD_XDICTIONARY
360
376
102
}
330
2A
100
AcDbVisualStyle
  2
Linepattern
 70
    14
 71
     2
 72
     2
 73
     0
 90
        0
 40
-0.6
 41
-30.0
 62
     5
 63
     7
 74
     1
 91
        4
 64
     7
 65
   257
 75
     7
175
     7
 42
1.0
 92
        8
 66
     7
 43
1.0
 76
     1
 77
     6
 78
     2
 67
     7
 79
     5
170
     0
171
     0
290
     0
174
     0
 93
        1
 44
0.0
173
     0
291
     1
 45
0.0
1001
ACAD
1000
AcDbSavedByObjectVersion
1070
     0
  0
VISUALSTYLE
  5
33
102
{ACAD_REACTORS
330
2A
102
}
102
{ACAD_XDICTIONARY
360
36C
102
}
330
2A
100
AcDbVisualStyle
  2
Realistic
 70
     8
 71
     2
 72
     2
 73
     0
 90
        0
 40
-0.6
 41
-30.0
 62
     5
 63
     7
 74
     1
 91
        0
 64
     7
 65
   257
 75
     1
175
     1
 42
1.0
 92
        8
 66
     8
 43
1.0
 76
     1
 77
     6
 78
     2
 67
     7
 79
     5
170
     0
171
     0
290
     0
174
     0
 93
       13
 44
0.0
173
     0
291
     0
 45
0.0
1001
ACAD
1000
AcDbSavedByObjectVersion
1070
     0
  0
VISUALSTYLE
  5
37
102
{ACAD_REACTORS
330
2A
102
}
102
{ACAD_XDICTIONARY
360
374
102
}
330
2A
100
AcDbVisualStyle
  2
Thicken
 70
    13
 71
     2
 72
     2
 73
     0
 90
        0
 40
-0.6
 41
-30.0
 62
     5
 63
     7
 74
     1
 91
        4
 64
     7
 65
   257
 75
     1
175
     1
 42
1.0
 92
       12
 66
     7
 43
1.0
 76
     1
 77
     6
 78
     2
 67
     7
 79
     5
170
     0
171
     0
290
     0
174
     0
 93
        1
 44
0.0
173
     0
291
     1
 45
0.0
1001
ACAD
1000
AcDbSavedByObjectVersion
1070
     0
  0
DICTIONARYVAR
  5
35A
102
{ACAD_REACTORS
330
357
102
}
330
357
100
DictionaryVariables
280
     0
  1
2
  0
DICTIONARYVAR
  5
35B
102
{ACAD_REACTORS
330
357
102
}
330
357
100
DictionaryVariables
280
     0
  1
1
  0
DICTIONARY
  5
37E
330
3D
100
AcDbDictionary
280
     1
281
     1
  3
ACAD_XREC_ROUNDTRIP
360
37F
  0
DICTIONARY
  5
37C
330
3C
100
AcDbDictionary
280
     1
281
     1
  3
ACAD_XREC_ROUNDTRIP
360
37D
  0
DICTIONARY
  5
380
330
3E
100
AcDbDictionary
280
     1
281
     1
  3
ACAD_XREC_ROUNDTRIP
360
381
  0
DICTIONARY
  5
364
330
2F
100
AcDbDictionary
280
     1
281
     1
  3
ACAD_XREC_ROUNDTRIP
360
365
  0
DICTIONARY
  5
368
330
31
100
AcDbDictionary
280
     1
281
     1
  3
ACAD_XREC_ROUNDTRIP
360
369
  0
DICTIONARY
  5
366
330
30
100
AcDbDictionary
280
     1
281
     1
  3
ACAD_XREC_ROUNDTRIP
360
367
  0
DICTIONARY
  5
36A
330
32
100
AcDbDictionary
280
     1
281
     1
  3
ACAD_XREC_ROUNDTRIP
360
36B
  0
DICTIONARY
  5
372
330
36
100
AcDbDictionary
280
     1
281
     1
  3
ACAD_XREC_ROUNDTRIP
360
373
  0
DICTIONARY
  5
37A
330
3A
100
AcDbDictionary
280
     1
281
     1
  3
ACAD_XREC_ROUNDTRIP
360
37B
  0
DICTIONARY
  5
36E
330
34
100
AcDbDictionary
280
     1
281
     1
  3
ACAD_XREC_ROUNDTRIP
360
36F
  0
DICTIONARY
  5
370
330
35
100
AcDbDictionary
280
     1
281
     1
  3
ACAD_XREC_ROUNDTRIP
360
371
  0
DICTIONARY
  5
378
330
39
100
AcDbDictionary
280
     1
281
     1
  3
ACAD_XREC_ROUNDTRIP
360
379
  0
DICTIONARY
  5
35C
330
2B
100
AcDbDictionary
280
     1
281
     1
  3
ACAD_XREC_ROUNDTRIP
360
35D
  0
DICTIONARY
  5
35E
330
2C
100
AcDbDictionary
280
     1
281
     1
  3
ACAD_XREC_ROUNDTRIP
360
35F
  0
DICTIONARY
  5
360
330
2D
100
AcDbDictionary
280
     1
281
     1
  3
ACAD_XREC_ROUNDTRIP
360
361
  0
DICTIONARY
  5
362
330
2E
100
AcDbDictionary
280
     1
281
     1
  3
ACAD_XREC_ROUNDTRIP
360
363
  0
DICTIONARY
  5
376
330
38
100
AcDbDictionary
280
     1
281
     1
  3
ACAD_XREC_ROUNDTRIP
360
377
  0
DICTIONARY
  5
36C
330
33
100
AcDbDictionary
280
     1
281
     1
  3
ACAD_XREC_ROUNDTRIP
360
36D
  0
DICTIONARY
  5
374
330
37
100
AcDbDictionary
280
     1
281
     1
  3
ACAD_XREC_ROUNDTRIP
360
375
  0
XRECORD
  5
37F
102
{ACAD_REACTORS
330
37E
102
}
330
37E
100
AcDbXrecord
280
     1
102
MATERIAL
148
0.0
149
0.0
149
0.0
 93
        0
 94
      127
282
     0
 72
     1
 77
     1
171
     1
175
     1
179
     1
273
     0
  0
XRECORD
  5
37D
102
{ACAD_REACTORS
330
37C
102
}
330
37C
100
AcDbXrecord
280
     1
102
MATERIAL
148
0.0
149
0.0
149
0.0
 93
        0
 94
      127
282
     0
 72
     1
 77
     1
171
     1
175
     1
179
     1
273
     0
  0
XRECORD
  5
381
102
{ACAD_REACTORS
330
380
102
}
330
380
100
AcDbXrecord
280
     1
102
MATERIAL
148
0.0
149
0.0
149
0.0
 93
        0
 94
      127
282
     0
 72
     1
 77
     1
171
     1
175
     1
179
     1
273
     0
  0
XRECORD
  5
365
102
{ACAD_REACTORS
330
364
102
}
330
364
100
AcDbXrecord
280
     1
102
RTVSPropertyOp0
 70
     1
102
RTVSPropertyOp1
 70
     1
102
RTVSPropertyOp2
 70
     1
102
RTVSPropertyOp3
 70
     1
102
RTVSPropertyOp4
 70
     1
102
RTVSPropertyOp5
 70
     1
102
RTVSPropertyOp6
 70
     1
102
RTVSPropertyOp7
 70
     1
102
RTVSPropertyOp8
 70
     1
102
RTVSPropertyOp9
 70
     1
102
RTVSPropertyOp10
 70
     1
102
RTVSPropertyOp11
 70
     1
102
RTVSPropertyOp12
 70
     1
102
RTVSPropertyOp13
 70
     1
102
RTVSPropertyOp14
 70
     1
102
RTVSPropertyOp15
 70
     1
102
RTVSPropertyOp16
 70
     1
102
RTVSPropertyOp17
 70
     1
102
RTVSPropertyOp18
 70
     1
102
RTVSPropertyOp19
 70
     1
102
RTVSPropertyOp20
 70
     1
102
RTVSPropertyOp21
 70
     1
102
RTVSPropertyOp22
 70
     1
102
RTVSPropertyOp23
 70
     1
102
RTVSPropertyOp24
 70
     1
102
RTVSPropertyOp25
 70
     1
102
RTVSPropertyOp26
 70
     1
102
RTVSPropertyOp27
 70
     1
102
RTVSPropertyOp28
 70
     1
102
RTVSPropertyOp29
 70
     1
102
RTVSPropertyOp30
 70
     1
102
RTVSPropertyOp31
 70
     1
102
RTVSPropertyOp32
 70
     1
  0
XRECORD
  5
369
102
{ACAD_REACTORS
330
368
102
}
330
368
100
AcDbXrecord
280
     1
102
RTVSPropertyOp0
 70
     1
102
RTVSPropertyOp1
 70
     1
102
RTVSPropertyOp2
 70
     1
102
RTVSPropertyOp3
 70
     1
102
RTVSPropertyOp4
 70
     1
102
RTVSPropertyOp5
 70
     1
102
RTVSPropertyOp6
 70
     1
102
RTVSPropertyOp7
 70
     1
102
RTVSPropertyOp8
 70
     1
102
RTVSPropertyOp9
 70
     1
102
RTVSPropertyOp10
 70
     1
102
RTVSPropertyOp11
 70
     1
102
RTVSPropertyOp12
 70
     1
102
RTVSPropertyOp13
 70
     1
102
RTVSPropertyOp14
 70
     1
102
RTVSPropertyOp15
 70
     1
102
RTVSPropertyOp16
 70
     1
102
RTVSPropertyOp17
 70
     1
102
RTVSPropertyOp18
 70
     1
102
RTVSPropertyOp19
 70
     1
102
RTVSPropertyOp20
 70
     1
102
RTVSPropertyOp21
 70
     1
102
RTVSPropertyOp22
 70
     1
102
RTVSPropertyOp23
 70
     1
102
RTVSPropertyOp24
 70
     1
102
RTVSPropertyOp25
 70
     1
102
RTVSPropertyOp26
 70
     1
102
RTVSPropertyOp27
 70
     1
102
RTVSPropertyOp28
 70
     1
102
RTVSPropertyOp29
 70
     1
102
RTVSPropertyOp30
 70
     1
102
RTVSPropertyOp31
 70
     1
102
RTVSPropertyOp32
 70
     1
  0
XRECORD
  5
367
102
{ACAD_REACTORS
330
366
102
}
330
366
100
AcDbXrecord
280
     1
102
RTVSPropertyOp0
 70
     1
102
RTVSPropertyOp1
 70
     1
102
RTVSPropertyOp2
 70
     1
102
RTVSPropertyOp3
 70
     1
102
RTVSPropertyOp4
 70
     1
102
RTVSPropertyOp5
 70
     1
102
RTVSPropertyOp6
 70
     1
102
RTVSPropertyOp7
 70
     1
102
RTVSPropertyOp8
 70
     1
102
RTVSPropertyOp9
 70
     1
102
RTVSPropertyOp10
 70
     1
102
RTVSPropertyOp11
 70
     1
102
RTVSPropertyOp12
 70
     1
102
RTVSPropertyOp13
 70
     1
102
RTVSPropertyOp14
 70
     1
102
RTVSPropertyOp15
 70
     1
102
RTVSPropertyOp16
 70
     1
102
RTVSPropertyOp17
 70
     1
102
RTVSPropertyOp18
 70
     1
102
RTVSPropertyOp19
 70
     1
102
RTVSPropertyOp20
 70
     1
102
RTVSPropertyOp21
 70
     1
102
RTVSPropertyOp22
 70
     1
102
RTVSPropertyOp23
 70
     1
102
RTVSPropertyOp24
 70
     1
102
RTVSPropertyOp25
 70
     1
102
RTVSPropertyOp26
 70
     1
102
RTVSPropertyOp27
 70
     1
102
RTVSPropertyOp28
 70
     1
102
RTVSPropertyOp29
 70
     1
102
RTVSPropertyOp30
 70
     1
102
RTVSPropertyOp31
 70
     1
102
RTVSPropertyOp32
 70
     1
  0
XRECORD
  5
36B
102
{ACAD_REACTORS
330
36A
102
}
330
36A
100
AcDbXrecord
280
     1
102
RTVSPropertyOp0
 70
     1
102
RTVSPropertyOp1
 70
     1
102
RTVSPropertyOp2
 70
     1
102
RTVSPropertyOp3
 70
     1
102
RTVSPropertyOp4
 70
     1
102
RTVSPropertyOp5
 70
     1
102
RTVSPropertyOp6
 70
     1
102
RTVSPropertyOp7
 70
     1
102
RTVSPropertyOp8
 70
     1
102
RTVSPropertyOp9
 70
     1
102
RTVSPropertyOp10
 70
     1
102
RTVSPropertyOp11
 70
     1
102
RTVSPropertyOp12
 70
     1
102
RTVSPropertyOp13
 70
     1
102
RTVSPropertyOp14
 70
     1
102
RTVSPropertyOp15
 70
     1
102
RTVSPropertyOp16
 70
     1
102
RTVSPropertyOp17
 70
     1
102
RTVSPropertyOp18
 70
     1
102
RTVSPropertyOp19
 70
     1
102
RTVSPropertyOp20
 70
     1
102
RTVSPropertyOp21
 70
     1
102
RTVSPropertyOp22
 70
     1
102
RTVSPropertyOp23
 70
     1
102
RTVSPropertyOp24
 70
     1
102
RTVSPropertyOp25
 70
     1
102
RTVSPropertyOp26
 70
     1
102
RTVSPropertyOp27
 70
     1
102
RTVSPropertyOp28
 70
     1
102
RTVSPropertyOp29
 70
     1
102
RTVSPropertyOp30
 70
     1
102
RTVSPropertyOp31
 70
     1
102
RTVSPropertyOp32
 70
     1
  0
XRECORD
  5
373
102
{ACAD_REACTORS
330
372
102
}
330
372
100
AcDbXrecord
280
     1
102
RTVSPropertyOp0
 70
     1
102
RTVSPropertyOp1
 70
     1
102
RTVSPropertyOp2
 70
     1
102
RTVSPropertyOp3
 70
     1
102
RTVSPropertyOp4
 70
     1
102
RTVSPropertyOp5
 70
     1
102
RTVSPropertyOp6
 70
     1
102
RTVSPropertyOp7
 70
     1
102
RTVSPropertyOp8
 70
     1
102
RTVSPropertyOp9
 70
     1
102
RTVSPropertyOp10
 70
     1
102
RTVSPropertyOp11
 70
     1
102
RTVSPropertyOp12
 70
     1
102
RTVSPropertyOp13
 70
     1
102
RTVSPropertyOp14
 70
     1
102
RTVSPropertyOp15
 70
     1
102
RTVSPropertyOp16
 70
     1
102
RTVSPropertyOp17
 70
     1
102
RTVSPropertyOp18
 70
     1
102
RTVSPropertyOp19
 70
     1
102
RTVSPropertyOp20
 70
     1
102
RTVSPropertyOp21
 70
     1
102
RTVSPropertyOp22
 70
     1
102
RTVSPropertyOp23
 70
     1
102
RTVSPropertyOp24
 70
     1
102
RTVSPropertyOp25
 70
     1
102
RTVSPropertyOp26
 70
     1
102
RTVSPropertyOp27
 70
     1
102
RTVSPropertyOp28
 70
     1
102
RTVSPropertyOp29
 70
     1
102
RTVSPropertyOp30
 70
     1
102
RTVSPropertyOp31
 70
     1
102
RTVSPropertyOp32
 70
     1
  0
XRECORD
  5
37B
102
{ACAD_REACTORS
330
37A
102
}
330
37A
100
AcDbXrecord
280
     1
102
RTVSPropertyOp0
 70
     1
102
RTVSPropertyOp1
 70
     1
102
RTVSPropertyOp2
 70
     1
102
RTVSPropertyOp3
 70
     1
102
RTVSPropertyOp4
 70
     1
102
RTVSPropertyOp5
 70
     1
102
RTVSPropertyOp6
 70
     1
102
RTVSPropertyOp7
 70
     1
102
RTVSPropertyOp8
 70
     1
102
RTVSPropertyOp9
 70
     1
102
RTVSPropertyOp10
 70
     1
102
RTVSPropertyOp11
 70
     1
102
RTVSPropertyOp12
 70
     1
102
RTVSPropertyOp13
 70
     1
102
RTVSPropertyOp14
 70
     1
102
RTVSPropertyOp15
 70
     1
102
RTVSPropertyOp16
 70
     1
102
RTVSPropertyOp17
 70
     1
102
RTVSPropertyOp18
 70
     1
102
RTVSPropertyOp19
 70
     1
102
RTVSPropertyOp20
 70
     1
102
RTVSPropertyOp21
 70
     1
102
RTVSPropertyOp22
 70
     1
102
RTVSPropertyOp23
 70
     1
102
RTVSPropertyOp24
 70
     1
102
RTVSPropertyOp25
 70
     1
102
RTVSPropertyOp26
 70
     1
102
RTVSPropertyOp27
 70
     1
102
RTVSPropertyOp28
 70
     1
102
RTVSPropertyOp29
 70
     1
102
RTVSPropertyOp30
 70
     1
102
RTVSPropertyOp31
 70
     1
102
RTVSPropertyOp32
 70
     1
  0
XRECORD
  5
36F
102
{ACAD_REACTORS
330
36E
102
}
330
36E
100
AcDbXrecord
280
     1
102
RTVSPropertyOp0
 70
     1
102
RTVSPropertyOp1
 70
     1
102
RTVSPropertyOp2
 70
     1
102
RTVSPropertyOp3
 70
     1
102
RTVSPropertyOp4
 70
     1
102
RTVSPropertyOp5
 70
     1
102
RTVSPropertyOp6
 70
     1
102
RTVSPropertyOp7
 70
     1
102
RTVSPropertyOp8
 70
     1
102
RTVSPropertyOp9
 70
     1
102
RTVSPropertyOp10
 70
     1
102
RTVSPropertyOp11
 70
     1
102
RTVSPropertyOp12
 70
     1
102
RTVSPropertyOp13
 70
     1
102
RTVSPropertyOp14
 70
     1
102
RTVSPropertyOp15
 70
     1
102
RTVSPropertyOp16
 70
     1
102
RTVSPropertyOp17
 70
     1
102
RTVSPropertyOp18
 70
     1
102
RTVSPropertyOp19
 70
     1
102
RTVSPropertyOp20
 70
     1
102
RTVSPropertyOp21
 70
     1
102
RTVSPropertyOp22
 70
     1
102
RTVSPropertyOp23
 70
     1
102
RTVSPropertyOp24
 70
     1
102
RTVSPropertyOp25
 70
     1
102
RTVSPropertyOp26
 70
     1
102
RTVSPropertyOp27
 70
     1
102
RTVSPropertyOp28
 70
     1
102
RTVSPropertyOp29
 70
     1
102
RTVSPropertyOp30
 70
     1
102
RTVSPropertyOp31
 70
     1
102
RTVSPropertyOp32
 70
     1
  0
XRECORD
  5
371
102
{ACAD_REACTORS
330
370
102
}
330
370
100
AcDbXrecord
280
     1
102
RTVSPropertyOp0
 70
     1
102
RTVSPropertyOp1
 70
     1
102
RTVSPropertyOp2
 70
     1
102
RTVSPropertyOp3
 70
     1
102
RTVSPropertyOp4
 70
     1
102
RTVSPropertyOp5
 70
     1
102
RTVSPropertyOp6
 70
     1
102
RTVSPropertyOp7
 70
     1
102
RTVSPropertyOp8
 70
     1
102
RTVSPropertyOp9
 70
     1
102
RTVSPropertyOp10
 70
     1
102
RTVSPropertyOp11
 70
     1
102
RTVSPropertyOp12
 70
     1
102
RTVSPropertyOp13
 70
     1
102
RTVSPropertyOp14
 70
     1
102
RTVSPropertyOp15
 70
     1
102
RTVSPropertyOp16
 70
     1
102
RTVSPropertyOp17
 70
     1
102
RTVSPropertyOp18
 70
     1
102
RTVSPropertyOp19
 70
     1
102
RTVSPropertyOp20
 70
     1
102
RTVSPropertyOp21
 70
     1
102
RTVSPropertyOp22
 70
     1
102
RTVSPropertyOp23
 70
     1
102
RTVSPropertyOp24
 70
     1
102
RTVSPropertyOp25
 70
     1
102
RTVSPropertyOp26
 70
     1
102
RTVSPropertyOp27
 70
     1
102
RTVSPropertyOp28
 70
     1
102
RTVSPropertyOp29
 70
     1
102
RTVSPropertyOp30
 70
     1
102
RTVSPropertyOp31
 70
     1
102
RTVSPropertyOp32
 70
     1
  0
XRECORD
  5
379
102
{ACAD_REACTORS
330
378
102
}
330
378
100
AcDbXrecord
280
     1
102
RTVSPropertyOp0
 70
     1
102
RTVSPropertyOp1
 70
     1
102
RTVSPropertyOp2
 70
     1
102
RTVSPropertyOp3
 70
     1
102
RTVSPropertyOp4
 70
     1
102
RTVSPropertyOp5
 70
     1
102
RTVSPropertyOp6
 70
     1
102
RTVSPropertyOp7
 70
     1
102
RTVSPropertyOp8
 70
     1
102
RTVSPropertyOp9
 70
     1
102
RTVSPropertyOp10
 70
     1
102
RTVSPropertyOp11
 70
     1
102
RTVSPropertyOp12
 70
     1
102
RTVSPropertyOp13
 70
     1
102
RTVSPropertyOp14
 70
     1
102
RTVSPropertyOp15
 70
     1
102
RTVSPropertyOp16
 70
     1
102
RTVSPropertyOp17
 70
     1
102
RTVSPropertyOp18
 70
     1
102
RTVSPropertyOp19
 70
     1
102
RTVSPropertyOp20
 70
     1
102
RTVSPropertyOp21
 70
     1
102
RTVSPropertyOp22
 70
     1
102
RTVSPropertyOp23
 70
     1
102
RTVSPropertyOp24
 70
     1
102
RTVSPropertyOp25
 70
     1
102
RTVSPropertyOp26
 70
     1
102
RTVSPropertyOp27
 70
     1
102
RTVSPropertyOp28
 70
     1
102
RTVSPropertyOp29
 70
     1
102
RTVSPropertyOp30
 70
     1
102
RTVSPropertyOp31
 70
     1
102
RTVSPropertyOp32
 70
     1
  0
XRECORD
  5
35D
102
{ACAD_REACTORS
330
35C
102
}
330
35C
100
AcDbXrecord
280
     1
102
RTVSPropertyOp0
 70
     1
102
RTVSPropertyOp1
 70
     1
102
RTVSPropertyOp2
 70
     1
102
RTVSPropertyOp3
 70
     1
102
RTVSPropertyOp4
 70
     1
102
RTVSPropertyOp5
 70
     1
102
RTVSPropertyOp6
 70
     1
102
RTVSPropertyOp7
 70
     1
102
RTVSPropertyOp8
 70
     1
102
RTVSPropertyOp9
 70
     1
102
RTVSPropertyOp10
 70
     1
102
RTVSPropertyOp11
 70
     1
102
RTVSPropertyOp12
 70
     1
102
RTVSPropertyOp13
 70
     1
102
RTVSPropertyOp14
 70
     1
102
RTVSPropertyOp15
 70
     1
102
RTVSPropertyOp16
 70
     1
102
RTVSPropertyOp17
 70
     1
102
RTVSPropertyOp18
 70
     1
102
RTVSPropertyOp19
 70
     1
102
RTVSPropertyOp20
 70
     1
102
RTVSPropertyOp21
 70
     1
102
RTVSPropertyOp22
 70
     1
102
RTVSPropertyOp23
 70
     1
102
RTVSPropertyOp24
 70
     1
102
RTVSPropertyOp25
 70
     1
102
RTVSPropertyOp26
 70
     1
102
RTVSPropertyOp27
 70
     1
102
RTVSPropertyOp28
 70
     1
102
RTVSPropertyOp29
 70
     1
102
RTVSPropertyOp30
 70
     1
102
RTVSPropertyOp31
 70
     1
102
RTVSPropertyOp32
 70
     1
  0
XRECORD
  5
35F
102
{ACAD_REACTORS
330
35E
102
}
330
35E
100
AcDbXrecord
280
     1
102
RTVSPropertyOp0
 70
     1
102
RTVSPropertyOp1
 70
     1
102
RTVSPropertyOp2
 70
     1
102
RTVSPropertyOp3
 70
     1
102
RTVSPropertyOp4
 70
     1
102
RTVSPropertyOp5
 70
     1
102
RTVSPropertyOp6
 70
     1
102
RTVSPropertyOp7
 70
     1
102
RTVSPropertyOp8
 70
     1
102
RTVSPropertyOp9
 70
     1
102
RTVSPropertyOp10
 70
     1
102
RTVSPropertyOp11
 70
     1
102
RTVSPropertyOp12
 70
     1
102
RTVSPropertyOp13
 70
     1
102
RTVSPropertyOp14
 70
     1
102
RTVSPropertyOp15
 70
     1
102
RTVSPropertyOp16
 70
     1
102
RTVSPropertyOp17
 70
     1
102
RTVSPropertyOp18
 70
     1
102
RTVSPropertyOp19
 70
     1
102
RTVSPropertyOp20
 70
     1
102
RTVSPropertyOp21
 70
     1
102
RTVSPropertyOp22
 70
     1
102
RTVSPropertyOp23
 70
     1
102
RTVSPropertyOp24
 70
     1
102
RTVSPropertyOp25
 70
     1
102
RTVSPropertyOp26
 70
     1
102
RTVSPropertyOp27
 70
     1
102
RTVSPropertyOp28
 70
     1
102
RTVSPropertyOp29
 70
     1
102
RTVSPropertyOp30
 70
     1
102
RTVSPropertyOp31
 70
     1
102
RTVSPropertyOp32
 70
     1
  0
XRECORD
  5
361
102
{ACAD_REACTORS
330
360
102
}
330
360
100
AcDbXrecord
280
     1
102
RTVSPropertyOp0
 70
     1
102
RTVSPropertyOp1
 70
     1
102
RTVSPropertyOp2
 70
     1
102
RTVSPropertyOp3
 70
     1
102
RTVSPropertyOp4
 70
     1
102
RTVSPropertyOp5
 70
     1
102
RTVSPropertyOp6
 70
     1
102
RTVSPropertyOp7
 70
     1
102
RTVSPropertyOp8
 70
     1
102
RTVSPropertyOp9
 70
     1
102
RTVSPropertyOp10
 70
     1
102
RTVSPropertyOp11
 70
     1
102
RTVSPropertyOp12
 70
     1
102
RTVSPropertyOp13
 70
     1
102
RTVSPropertyOp14
 70
     1
102
RTVSPropertyOp15
 70
     1
102
RTVSPropertyOp16
 70
     1
102
RTVSPropertyOp17
 70
     1
102
RTVSPropertyOp18
 70
     1
102
RTVSPropertyOp19
 70
     1
102
RTVSPropertyOp20
 70
     1
102
RTVSPropertyOp21
 70
     1
102
RTVSPropertyOp22
 70
     1
102
RTVSPropertyOp23
 70
     1
102
RTVSPropertyOp24
 70
     1
102
RTVSPropertyOp25
 70
     1
102
RTVSPropertyOp26
 70
     1
102
RTVSPropertyOp27
 70
     1
102
RTVSPropertyOp28
 70
     1
102
RTVSPropertyOp29
 70
     1
102
RTVSPropertyOp30
 70
     1
102
RTVSPropertyOp31
 70
     1
102
RTVSPropertyOp32
 70
     1
  0
XRECORD
  5
363
102
{ACAD_REACTORS
330
362
102
}
330
362
100
AcDbXrecord
280
     1
102
RTVSPropertyOp0
 70
     1
102
RTVSPropertyOp1
 70
     1
102
RTVSPropertyOp2
 70
     1
102
RTVSPropertyOp3
 70
     1
102
RTVSPropertyOp4
 70
     1
102
RTVSPropertyOp5
 70
     1
102
RTVSPropertyOp6
 70
     1
102
RTVSPropertyOp7
 70
     1
102
RTVSPropertyOp8
 70
     1
102
RTVSPropertyOp9
 70
     1
102
RTVSPropertyOp10
 70
     1
102
RTVSPropertyOp11
 70
     1
102
RTVSPropertyOp12
 70
     1
102
RTVSPropertyOp13
 70
     1
102
RTVSPropertyOp14
 70
     1
102
RTVSPropertyOp15
 70
     1
102
RTVSPropertyOp16
 70
     1
102
RTVSPropertyOp17
 70
     1
102
RTVSPropertyOp18
 70
     1
102
RTVSPropertyOp19
 70
     1
102
RTVSPropertyOp20
 70
     1
102
RTVSPropertyOp21
 70
     1
102
RTVSPropertyOp22
 70
     1
102
RTVSPropertyOp23
 70
     1
102
RTVSPropertyOp24
 70
     1
102
RTVSPropertyOp25
 70
     1
102
RTVSPropertyOp26
 70
     1
102
RTVSPropertyOp27
 70
     1
102
RTVSPropertyOp28
 70
     1
102
RTVSPropertyOp29
 70
     1
102
RTVSPropertyOp30
 70
     1
102
RTVSPropertyOp31
 70
     1
102
RTVSPropertyOp32
 70
     1
  0
XRECORD
  5
377
102
{ACAD_REACTORS
330
376
102
}
330
376
100
AcDbXrecord
280
     1
102
RTVSPropertyOp0
 70
     1
102
RTVSPropertyOp1
 70
     1
102
RTVSPropertyOp2
 70
     1
102
RTVSPropertyOp3
 70
     1
102
RTVSPropertyOp4
 70
     1
102
RTVSPropertyOp5
 70
     1
102
RTVSPropertyOp6
 70
     1
102
RTVSPropertyOp7
 70
     1
102
RTVSPropertyOp8
 70
     1
102
RTVSPropertyOp9
 70
     1
102
RTVSPropertyOp10
 70
     1
102
RTVSPropertyOp11
 70
     1
102
RTVSPropertyOp12
 70
     1
102
RTVSPropertyOp13
 70
     1
102
RTVSPropertyOp14
 70
     1
102
RTVSPropertyOp15
 70
     1
102
RTVSPropertyOp16
 70
     1
102
RTVSPropertyOp17
 70
     1
102
RTVSPropertyOp18
 70
     1
102
RTVSPropertyOp19
 70
     1
102
RTVSPropertyOp20
 70
     1
102
RTVSPropertyOp21
 70
     1
102
RTVSPropertyOp22
 70
     1
102
RTVSPropertyOp23
 70
     1
102
RTVSPropertyOp24
 70
     1
102
RTVSPropertyOp25
 70
     1
102
RTVSPropertyOp26
 70
     1
102
RTVSPropertyOp27
 70
     1
102
RTVSPropertyOp28
 70
     1
102
RTVSPropertyOp29
 70
     1
102
RTVSPropertyOp30
 70
     1
102
RTVSPropertyOp31
 70
     1
102
RTVSPropertyOp32
 70
     1
  0
XRECORD
  5
36D
102
{ACAD_REACTORS
330
36C
102
}
330
36C
100
AcDbXrecord
280
     1
102
RTVSPropertyOp0
 70
     1
102
RTVSPropertyOp1
 70
     1
102
RTVSPropertyOp2
 70
     1
102
RTVSPropertyOp3
 70
     1
102
RTVSPropertyOp4
 70
     1
102
RTVSPropertyOp5
 70
     1
102
RTVSPropertyOp6
 70
     1
102
RTVSPropertyOp7
 70
     1
102
RTVSPropertyOp8
 70
     1
102
RTVSPropertyOp9
 70
     1
102
RTVSPropertyOp10
 70
     1
102
RTVSPropertyOp11
 70
     1
102
RTVSPropertyOp12
 70
     1
102
RTVSPropertyOp13
 70
     1
102
RTVSPropertyOp14
 70
     1
102
RTVSPropertyOp15
 70
     1
102
RTVSPropertyOp16
 70
     1
102
RTVSPropertyOp17
 70
     1
102
RTVSPropertyOp18
 70
     1
102
RTVSPropertyOp19
 70
     1
102
RTVSPropertyOp20
 70
     1
102
RTVSPropertyOp21
 70
     1
102
RTVSPropertyOp22
 70
     1
102
RTVSPropertyOp23
 70
     1
102
RTVSPropertyOp24
 70
     1
102
RTVSPropertyOp25
 70
     1
102
RTVSPropertyOp26
 70
     1
102
RTVSPropertyOp27
 70
     1
102
RTVSPropertyOp28
 70
     1
102
RTVSPropertyOp29
 70
     1
102
RTVSPropertyOp30
 70
     1
102
RTVSPropertyOp31
 70
     1
102
RTVSPropertyOp32
 70
     1
  0
XRECORD
  5
375
102
{ACAD_REACTORS
330
374
102
}
330
374
100
AcDbXrecord
280
     1
102
RTVSPropertyOp0
 70
     1
102
RTVSPropertyOp1
 70
     1
102
RTVSPropertyOp2
 70
     1
102
RTVSPropertyOp3
 70
     1
102
RTVSPropertyOp4
 70
     1
102
RTVSPropertyOp5
 70
     1
102
RTVSPropertyOp6
 70
     1
102
RTVSPropertyOp7
 70
     1
102
RTVSPropertyOp8
 70
     1
102
RTVSPropertyOp9
 70
     1
102
RTVSPropertyOp10
 70
     1
102
RTVSPropertyOp11
 70
     1
102
RTVSPropertyOp12
 70
     1
102
RTVSPropertyOp13
 70
     1
102
RTVSPropertyOp14
 70
     1
102
RTVSPropertyOp15
 70
     1
102
RTVSPropertyOp16
 70
     1
102
RTVSPropertyOp17
 70
     1
102
RTVSPropertyOp18
 70
     1
102
RTVSPropertyOp19
 70
     1
102
RTVSPropertyOp20
 70
     1
102
RTVSPropertyOp21
 70
     1
102
RTVSPropertyOp22
 70
     1
102
RTVSPropertyOp23
 70
     1
102
RTVSPropertyOp24
 70
     1
102
RTVSPropertyOp25
 70
     1
102
RTVSPropertyOp26
 70
     1
102
RTVSPropertyOp27
 70
     1
102
RTVSPropertyOp28
 70
     1
102
RTVSPropertyOp29
 70
     1
102
RTVSPropertyOp30
 70
     1
102
RTVSPropertyOp31
 70
     1
102
RTVSPropertyOp32
 70
     1
  0
ENDSEC
  0
EOF
